<?xml version="1.0" standalone="no"?>
<!DOCTYPE svg PUBLIC "-//W3C//DTD SVG 1.1//EN" "http://www.w3.org/Graphics/SVG/1.1/DTD/svg11.dtd" >
<svg xmlns="http://www.w3.org/2000/svg" xmlns:xlink="http://www.w3.org/1999/xlink" version="1.1">
<metadata>
Created by FontForge 20170731 at Tue Jun 16 21:59:27 2020
 By Aleksey,,,
Copyright 2011 The Mulish Project Authors (github.com/googlefonts/mulish)
</metadata>
<defs>
<font id="Mulish-ExtraBold" horiz-adv-x="0" >
  <font-face 
    font-family="Mulish ExtraBold"
    font-weight="800"
    font-stretch="normal"
    units-per-em="1000"
    panose-1="0 0 0 0 0 0 0 0 0 0"
    ascent="800"
    descent="-200"
    x-height="506"
    cap-height="712"
    bbox="-209 -277 1336 1092"
    underline-thickness="50"
    underline-position="-175"
    unicode-range="U+000D-FB02"
  />
<missing-glyph horiz-adv-x="500" 
d="M50 -216h400v952h-400v-952zM100 -166v852h300v-852h-300z" />
    <glyph glyph-name="fi" unicode="fi" horiz-adv-x="658" 
d="M439 750h165v-145h-165v145zM597 507v-507h-151v394h-442v113h593zM100 0v548q0 71 23 112.5t74 60t138 18.5h41v-109h-25q-42 0 -63.5 -6.5t-29 -27t-7.5 -62.5v-534h-151z" />
    <glyph glyph-name="fl" unicode="fl" horiz-adv-x="659" 
d="M4 394v113h352v-113h-352zM376 610q-29 7 -49 7q-21 0 -39 -8t-28 -26t-10 -48v-535h-151v539q0 95 48.5 148.5t142.5 53.5q23 0 44.5 -3t41.5 -10v-118zM446 0v736h151v-736h-151z" />
    <glyph glyph-name=".notdef" horiz-adv-x="500" 
d="M50 -216h400v952h-400v-952zM100 -166v852h300v-852h-300z" />
    <glyph glyph-name=".null" 
 />
    <glyph glyph-name="nonmarkingreturn" horiz-adv-x="333" 
 />
    <glyph glyph-name="NULL" 
 />
    <glyph glyph-name="NULL" 
 />
    <glyph glyph-name="CR" unicode="&#xd;" horiz-adv-x="281" 
 />
    <glyph glyph-name="space" unicode=" " horiz-adv-x="281" 
 />
    <glyph glyph-name="exclam" unicode="!" horiz-adv-x="263" 
d="M85 229l-47 484l186 -1l-47 -483h-92zM49 161h164v-161h-164v161z" />
    <glyph glyph-name="quotedbl" unicode="&#x22;" horiz-adv-x="473" 
d="M79 411l-38 301h174l-35 -301h-101zM295 411l-38 301h174l-35 -301h-101z" />
    <glyph glyph-name="numbersign" unicode="#" horiz-adv-x="606" 
d="M287 0l141 712h101l-141 -712h-101zM50 167v94h484v-94h-484zM77 0l141 712h101l-141 -712h-101zM72 459v94h485v-94h-485z" />
    <glyph glyph-name="dollar" unicode="$" horiz-adv-x="600" 
d="M300 -9q-82 0 -152 21t-120 59l51 112q49 -36 102 -53.5t114 -17.5q62 0 94.5 22.5t32.5 65.5q0 28 -21 44.5t-55.5 27t-75 20.5t-82 23.5t-76 36t-55 58.5t-20.5 92q0 63 36 112.5t98 78t141 28.5q47 0 94 -10t87.5 -28t68.5 -42l-51 -112q-97 71 -198 71q-55 0 -88 -23
t-33 -65q0 -31 21 -48.5t55.5 -29t75.5 -21t82 -22.5t75.5 -35.5t55.5 -58t21 -90.5q0 -64 -35 -112.5t-97.5 -76t-145.5 -27.5zM249 -116v134l11 70v553l-11 60v127h122v-127l-9 -60v-553l9 -70v-134h-122z" />
    <glyph glyph-name="percent" unicode="%" horiz-adv-x="900" 
d="M190 281q-80 0 -126.5 55t-46.5 164q0 107 46.5 161.5t126.5 54.5t126 -55t46 -162q0 -108 -46 -163t-126 -55zM190 376q24 0 35.5 28t11.5 95q0 66 -12 94t-35 28q-24 0 -36 -28t-12 -94q0 -67 12 -95t36 -28zM171 0l413 712h146l-413 -712h-146zM710 -4
q-80 0 -126.5 55t-46.5 164q0 107 46.5 161.5t126.5 54.5t126 -55t46 -162q0 -108 -46 -163t-126 -55zM710 91q24 0 35.5 28t11.5 95q0 66 -12 94t-35 28q-24 0 -36 -28t-12 -94q0 -67 12 -95t36 -28z" />
    <glyph glyph-name="ampersand" unicode="&#x26;" horiz-adv-x="697" 
d="M286 -8q-76 0 -133 25t-89 69.5t-32 104.5q0 76 49 132t155 103q52 24 83 44t44.5 40t13.5 42q0 31 -18 48.5t-47 17.5q-33 0 -53 -19.5t-20 -52.5q0 -16 6.5 -31.5t23 -35t46.5 -49.5l245 -241q35 -36 76 -59t90 -36l-73 -104q-54 16 -96.5 40.5t-79.5 61.5l-291 290
q-28 28 -46.5 55t-27 53.5t-8.5 53.5q0 53 26 92t72.5 61t107.5 22q85 0 136 -44t51 -117q0 -44 -21 -81.5t-64 -70.5t-110 -62q-42 -19 -69.5 -40.5t-40.5 -47t-13 -55.5q0 -44 30.5 -69t80.5 -25q65 0 118.5 42.5t88 117t39.5 168.5h125q-4 -95 -34.5 -176t-81.5 -141
t-117 -93t-142 -33z" />
    <glyph glyph-name="quotesingle" unicode="'" horiz-adv-x="257" 
d="M79 411l-38 301h174l-35 -301h-101z" />
    <glyph glyph-name="parenleft" unicode="(" horiz-adv-x="378" 
d="M231 -182q-48 83 -77 157t-41.5 144.5t-12.5 146.5t13 148t41.5 145t77.5 153h121q-40 -97 -60.5 -172.5t-28.5 -141.5t-8 -132q0 -67 8 -132.5t28.5 -141.5t57.5 -174h-119z" />
    <glyph glyph-name="parenright" unicode=")" horiz-adv-x="378" 
d="M146 -182h-119q38 98 58 174t28 141.5t8 132.5q0 66 -7.5 132t-28.5 141.5t-59 172.5h120q71 -119 101 -226t30 -220q0 -76 -12.5 -146.5t-41 -144.5t-77.5 -157z" />
    <glyph glyph-name="asterisk" unicode="*" horiz-adv-x="459" 
d="M153 336l-83 61l89 107l-136 36l33 99l129 -51l-8 139h104l-9 -138l131 50l32 -99l-136 -35l89 -108l-84 -61l-75 117z" />
    <glyph glyph-name="plus" unicode="+" horiz-adv-x="600" 
d="M546 341v-103h-492v103h492zM248 536h104v-493h-104v493z" />
    <glyph glyph-name="comma" unicode="," horiz-adv-x="263" 
d="M121 -144l-58 46q35 35 50 66.5t15 67.5l36 -36h-115v161h164v-104q0 -56 -20.5 -104t-71.5 -97z" />
    <glyph glyph-name="hyphen" unicode="-" horiz-adv-x="444" 
d="M67 211v118h311v-118h-311z" />
    <glyph glyph-name="period" unicode="." horiz-adv-x="263" 
d="M49 161h164v-161h-164v161z" />
    <glyph glyph-name="slash" unicode="/" horiz-adv-x="333" 
d="M97 -61h-124l262 816h124z" />
    <glyph glyph-name="zero" unicode="0" horiz-adv-x="600" 
d="M300 -9q-129 0 -197.5 93.5t-68.5 272.5q0 176 68.5 269t197.5 93t197.5 -93t68.5 -269q0 -178 -68.5 -272t-197.5 -94zM300 111q59 0 86 58t27 188q0 127 -27 185t-86 58t-86 -58t-27 -185q0 -130 27 -188t86 -58z" />
    <glyph glyph-name="one" unicode="1" horiz-adv-x="600" 
d="M257 72v517l74 -7l-218 -129v137l209 122h91v-640h-156zM103 0v125h465v-125h-465z" />
    <glyph glyph-name="two" unicode="2" horiz-adv-x="601" 
d="M65 0v115l237 252q37 41 55.5 76.5t18.5 70.5q0 42 -25 63t-72 21q-45 0 -92.5 -17.5t-95.5 -51.5l-50 112q43 37 110 58.5t136 21.5q73 0 128 -24t84.5 -68.5t29.5 -104.5q0 -63 -25.5 -115t-85.5 -116l-204 -214l-20 46h360v-125h-489z" />
    <glyph glyph-name="three" unicode="3" horiz-adv-x="600" 
d="M283 -8q-73 0 -141 21.5t-111 58.5l50 112q47 -35 96 -52t99 -17q65 0 94.5 22t29.5 72q0 47 -29.5 69t-94.5 22h-102v121h84q63 0 93 21t30 66q0 44 -27 67t-75 23q-46 0 -94.5 -17.5t-93.5 -51.5l-50 112q43 37 110.5 58.5t137.5 21.5q73 0 127 -23.5t83.5 -67
t29.5 -101.5q0 -62 -32.5 -106t-92.5 -61v8q69 -15 106 -61t37 -115q0 -94 -71 -148t-193 -54z" />
    <glyph glyph-name="four" unicode="4" horiz-adv-x="600" 
d="M331 0v519h32l-215 -309v41h434v-121h-548v116l326 466h125v-712h-154z" />
    <glyph glyph-name="five" unicode="5" horiz-adv-x="600" 
d="M294 -8q-68 0 -134.5 21.5t-107.5 58.5l50 112q47 -34 96 -51.5t98 -17.5q62 0 93.5 28.5t31.5 82.5q0 36 -14.5 61.5t-42 39t-65.5 13.5q-34 0 -69.5 -12.5t-63.5 -36.5h-89v421h457v-120h-305v-204l-47 8q31 32 70.5 48.5t90.5 16.5q67 0 117.5 -29t79.5 -80t29 -120
q0 -72 -34 -126t-95.5 -84t-145.5 -30z" />
    <glyph glyph-name="six" unicode="6" horiz-adv-x="600" 
d="M324 -9q-138 0 -214 92t-76 263q0 117 36 201t103.5 129t160.5 45q66 0 128 -20.5t106 -59.5l-51 -112q-48 37 -93 53t-83 16q-74 0 -113 -63.5t-39 -185.5v-36l-15 24q9 38 34.5 66t63 43.5t80.5 15.5q63 0 111.5 -29.5t76 -81.5t27.5 -119q0 -70 -31 -124.5t-86 -85.5
t-126 -31zM315 113q48 0 77 31t29 82q0 52 -28.5 83t-77.5 31q-31 0 -55.5 -14t-38 -40t-13.5 -60t13.5 -59t38 -39.5t55.5 -14.5z" />
    <glyph glyph-name="seven" unicode="7" horiz-adv-x="600" 
d="M239 0h-167l340 632l2 -45h-369v125h511v-116z" />
    <glyph glyph-name="eight" unicode="8" horiz-adv-x="600" 
d="M300 -8q-80 0 -141.5 24.5t-96.5 69.5t-35 108q0 75 49 122t133 58l-2 -16q-74 14 -118.5 59.5t-44.5 110.5q0 60 33.5 103t91.5 66.5t131 23.5t131 -23.5t91.5 -66.5t33.5 -103q0 -67 -44.5 -112t-116.5 -57l-3 15q84 -12 132.5 -59.5t48.5 -120.5q0 -63 -35 -108
t-96.5 -69.5t-141.5 -24.5zM300 111q57 0 92.5 24t35.5 71q0 45 -36 71t-92 35q-56 -9 -92 -35t-36 -71q0 -47 35.5 -71t92.5 -24zM300 409q47 8 78 33t31 69q0 46 -30.5 68.5t-78.5 22.5t-78.5 -22.5t-30.5 -68.5q0 -44 31 -69t78 -33z" />
    <glyph glyph-name="nine" unicode="9" horiz-adv-x="600" 
d="M276 721q139 0 214 -92t75 -263q0 -117 -36 -201t-103 -129t-160 -45q-66 0 -128 20.5t-106 59.5l51 112q50 -37 94 -53t82 -16q75 0 113.5 63.5t38.5 185.5v36l16 -24q-10 -38 -36 -66t-63 -43.5t-80 -15.5q-63 0 -111.5 29.5t-76.5 81.5t-28 119q0 70 31.5 124.5
t86.5 85.5t126 31zM285 599q-49 0 -77 -31t-28 -82q0 -52 28 -83t77 -31q31 0 55.5 14t38 40t13.5 60t-13.5 59t-38 39.5t-55.5 14.5z" />
    <glyph glyph-name="colon" unicode=":" horiz-adv-x="263" 
d="M49 161h164v-161h-164v161zM49 496h164v-161h-164v161z" />
    <glyph glyph-name="semicolon" unicode=";" horiz-adv-x="263" 
d="M49 496h164v-161h-164v161zM121 -144l-58 46q35 35 50 66.5t15 67.5l36 -36h-115v161h164v-104q0 -56 -20.5 -104t-71.5 -97z" />
    <glyph glyph-name="less" unicode="&#x3c;" horiz-adv-x="600" 
d="M54 233v113l492 201v-113l-452 -182v75l452 -182v-114z" />
    <glyph glyph-name="equal" unicode="=" horiz-adv-x="600" 
d="M546 442v-103h-492v103h492zM546 240v-103h-492v103h492z" />
    <glyph glyph-name="greater" unicode="&#x3e;" horiz-adv-x="600" 
d="M546 233l-492 -202v114l452 182v-75l-452 182v113l492 -201v-113z" />
    <glyph glyph-name="question" unicode="?" horiz-adv-x="473" 
d="M89 680q35 22 75 31.5t78 9.5q66 0 115.5 -21.5t77.5 -60t28 -89.5q0 -42 -17 -74.5t-43 -59.5t-53 -51t-47 -50t-24 -56l-6 -34h-89v50q0 43 12.5 73.5t31.5 53.5t37 43.5t31 42t13 48.5q0 30 -20.5 46t-58.5 16q-32 0 -68.5 -10t-72.5 -33v125zM149 0v161h162v-161
h-162z" />
    <glyph glyph-name="at" unicode="@" horiz-adv-x="948" 
d="M484 -161q-137 0 -236.5 55t-153 151.5t-53.5 222.5q0 107 33.5 190.5t93.5 142t141.5 88.5t176.5 30q102 0 180.5 -29t132.5 -80t81 -119.5t27 -147.5q0 -67 -15.5 -119.5t-44 -88t-66.5 -53.5t-83 -18q-55 0 -87.5 23.5t-40.5 61.5h-2q-24 -35 -58 -60t-89 -25
q-76 0 -117 50.5t-41 131.5q0 54 15.5 101.5t43.5 82.5t67 55t86 20q40 0 72 -17t45 -49h3l10 57h109l-43 -238q-9 -53 -0.5 -80t46.5 -27q13 0 28.5 9.5t29 31.5t22 59.5t8.5 91.5q0 63 -20 115t-60 90t-100 58.5t-139 20.5q-72 0 -133.5 -24t-107 -69.5t-70.5 -112.5
t-25 -153q0 -102 40 -177t115 -117t179 -42q76 0 128.5 18.5t78.5 49.5h140q-37 -69 -126 -115t-221 -46zM445 151q42 0 71 25.5t43 65.5t14 83q0 46 -21.5 69.5t-57.5 23.5q-40 0 -67 -26.5t-40.5 -66t-13.5 -79.5q0 -43 19.5 -69t52.5 -26z" />
    <glyph glyph-name="A" unicode="A" horiz-adv-x="759" 
d="M146 0h-157l327 712h126l327 -712h-155l-252 588h38zM137 158l60 119h356l59 -119h-475z" />
    <glyph glyph-name="B" unicode="B" horiz-adv-x="696" 
d="M71 0v712h328q110 0 175 -49.5t65 -135.5q0 -59 -33 -102.5t-92 -60.5v8q69 -16 106.5 -62t37.5 -115q0 -90 -66.5 -142.5t-182.5 -52.5h-338zM224 120h167q63 0 91.5 21t28.5 69q0 47 -28.5 69.5t-91.5 22.5h-167v-182zM224 422h149q61 0 89.5 21t28.5 64q0 44 -29 64.5
t-89 20.5h-149v-170z" />
    <glyph glyph-name="C" unicode="C" horiz-adv-x="685" 
d="M405 -9q-109 0 -189 45t-123 127.5t-43 193.5q0 110 43 192t123 127t189 45q71 0 135 -21.5t106 -60.5l-49 -112q-48 36 -93.5 52.5t-95.5 16.5q-95 0 -147 -60.5t-52 -178.5t52 -179.5t147 -61.5q50 0 95.5 16.5t93.5 52.5l49 -112q-42 -39 -106 -60.5t-135 -21.5z" />
    <glyph glyph-name="D" unicode="D" horiz-adv-x="771" 
d="M71 0v712h276q117 0 200.5 -42t128 -121.5t44.5 -191.5q0 -113 -44 -192.5t-127.5 -122t-201.5 -42.5h-276zM227 126h109q114 0 171 57.5t57 173.5q0 229 -228 229h-109v-460z" />
    <glyph glyph-name="E" unicode="E" horiz-adv-x="599" 
d="M71 0v712h491v-121h-338v-168h317v-122h-317v-180h338v-121h-491z" />
    <glyph glyph-name="F" unicode="F" horiz-adv-x="578" 
d="M71 0v712h480v-124h-326v-165h306v-123h-306v-300h-154z" />
    <glyph glyph-name="G" unicode="G" horiz-adv-x="745" 
d="M418 -9q-114 0 -196.5 44t-127 126t-44.5 196q0 112 44.5 194t125.5 126t191 44q76 0 143 -21t110 -59l-50 -112q-51 36 -97.5 52t-101.5 16q-103 0 -154.5 -60t-51.5 -180q0 -123 53.5 -184.5t162.5 -61.5q38 0 76.5 6.5t74.5 19.5l-34 -51v198h-140v109h281v-349
q-35 -17 -78.5 -29t-91 -18t-95.5 -6z" />
    <glyph glyph-name="H" unicode="H" horiz-adv-x="779" 
d="M554 0v712h153v-712h-153zM71 0v712h153v-712h-153zM121 300v123h525v-123h-525z" />
    <glyph glyph-name="I" unicode="I" horiz-adv-x="299" 
d="M71 0v712h156v-712h-156z" />
    <glyph glyph-name="J" unicode="J" horiz-adv-x="381" 
d="M0 -179v127q63 -9 95.5 -5t45 26.5t12.5 70.5v672h156v-670q0 -92 -28 -147t-96 -73.5t-185 -0.5z" />
    <glyph glyph-name="K" unicode="K" horiz-adv-x="684" 
d="M537 0l-343 364l332 348h186l-376 -387l11 83l378 -408h-188zM71 0v712h156v-712h-156z" />
    <glyph glyph-name="L" unicode="L" horiz-adv-x="569" 
d="M71 0v712h156v-585h318v-127h-474z" />
    <glyph glyph-name="M" unicode="M" horiz-adv-x="851" 
d="M73 0v712h124l257 -587h-55l256 587h123v-712h-138l-1 481l36 -9l-199 -472h-101l-203 472l38 9v-481h-137z" />
    <glyph glyph-name="N" unicode="N" horiz-adv-x="760" 
d="M71 0v712h115l384 -490l-29 -19v509h147v-712h-116l-382 488l27 21v-509h-146z" />
    <glyph glyph-name="O" unicode="O" horiz-adv-x="795" 
d="M398 -9q-107 0 -185 45t-120.5 127t-42.5 194q0 111 42.5 193t120.5 126.5t185 44.5t184.5 -44.5t119.5 -126.5t42 -193q0 -112 -42 -194t-119.5 -127t-184.5 -45zM398 112q88 0 139.5 62.5t51.5 182.5t-51.5 181.5t-139.5 61.5q-89 0 -140 -61.5t-51 -181.5
q0 -121 51 -183t140 -62z" />
    <glyph glyph-name="P" unicode="P" horiz-adv-x="675" 
d="M71 0v712h323q120 0 184.5 -57t64.5 -155q0 -97 -65.5 -154.5t-183.5 -57.5h-167v-288h-156zM227 407h147q62 0 92 24t30 68q0 45 -29.5 69t-92.5 24h-147v-185z" />
    <glyph glyph-name="Q" unicode="Q" horiz-adv-x="795" 
d="M592 -191q-54 36 -97.5 85t-74.5 102l136 55q25 -51 63.5 -90.5t77.5 -72.5zM398 -9q-107 0 -185 45t-120.5 127t-42.5 194q0 111 42.5 193t120.5 126.5t185 44.5t184.5 -44.5t119.5 -126.5t42 -193q0 -112 -42 -194t-119.5 -127t-184.5 -45zM398 112q88 0 139.5 62.5
t51.5 182.5t-51.5 181.5t-139.5 61.5q-89 0 -140 -61.5t-51 -181.5q0 -121 51 -183t140 -62z" />
    <glyph glyph-name="R" unicode="R" horiz-adv-x="708" 
d="M71 0v712h317q125 0 189 -54.5t64 -154.5q0 -95 -66 -152.5t-184 -57.5l82 17q37 0 66.5 -22t46.5 -67l86 -221h-165l-91 237q-11 29 -35 39.5t-55 10.5h-101v-287h-154zM224 406h141q67 0 98 23t31 70q0 48 -30.5 70.5t-98.5 22.5h-141v-186z" />
    <glyph glyph-name="S" unicode="S" horiz-adv-x="657" 
d="M320 -9q-54 0 -105.5 9.5t-96.5 28t-78 44.5l51 112q53 -37 110 -55t120 -18q68 0 104.5 22t36.5 61q0 23 -15 39t-48 28t-88 24q-69 14 -118 33t-79.5 44t-44.5 58.5t-14 77.5q0 63 35.5 113.5t99 79.5t148.5 29q51 0 99.5 -10t89.5 -28t69 -44l-50 -112q-48 37 -100 55
t-106 18q-61 0 -97 -24.5t-36 -66.5q0 -23 14 -39t46.5 -28.5t89.5 -25.5q67 -14 116 -33t80.5 -43.5t46.5 -57t15 -74.5q0 -67 -35 -115.5t-101 -75t-159 -26.5z" />
    <glyph glyph-name="T" unicode="T" horiz-adv-x="628" 
d="M235 0v585h-223v127h604v-127h-223v-585h-158z" />
    <glyph glyph-name="U" unicode="U" horiz-adv-x="746" 
d="M374 -9q-151 0 -228.5 77t-77.5 226v418h152v-425q0 -85 39 -130t115 -45q73 0 112 45t39 130v425h155v-418q0 -148 -79 -225.5t-227 -77.5z" />
    <glyph glyph-name="V" unicode="V" horiz-adv-x="735" 
d="M305 0l-321 712h163l245 -570h-46l247 570h158l-320 -712h-126z" />
    <glyph glyph-name="W" unicode="W" horiz-adv-x="1126" 
d="M271 0l-253 712h159l183 -551h-40l193 551h109l185 -551h-35l186 551h149l-253 -712h-125l-178 506h25l-180 -506h-125z" />
    <glyph glyph-name="X" unicode="X" horiz-adv-x="681" 
d="M162 0h-182l271 361l89 114l172 237h182l-266 -351l-88 -115zM518 0l-178 246l-89 115l-263 351h181l171 -237l88 -114l272 -361h-182z" />
    <glyph glyph-name="Y" unicode="Y" horiz-adv-x="642" 
d="M242 0v320l33 -90l-326 482h177l215 -337h-42l217 337h178l-326 -482l31 90v-320h-157z" />
    <glyph glyph-name="Z" unicode="Z" horiz-adv-x="616" 
d="M51 0v114l374 518l-1 -44h-373v124h518v-113l-377 -519l2 44h386v-124h-529z" />
    <glyph glyph-name="bracketleft" unicode="[" horiz-adv-x="376" 
d="M105 -182v894h257v-113h-109v-668h109v-113h-257z" />
    <glyph glyph-name="backslash" unicode="\" horiz-adv-x="332" 
d="M234 -61l-261 816h124l261 -816h-124z" />
    <glyph glyph-name="bracketright" unicode="]" horiz-adv-x="376" 
d="M271 -182h-257v113h108v668h-108v113h257v-894z" />
    <glyph glyph-name="asciicircum" unicode="^" horiz-adv-x="600" 
d="M357 637l202 -493h-114l-182 452h74l-182 -452h-114l202 493h114z" />
    <glyph glyph-name="underscore" unicode="_" horiz-adv-x="505" 
d="M14 -88v88h477v-88h-477z" />
    <glyph glyph-name="grave" unicode="`" horiz-adv-x="300" 
d="M105 561l-154 206h149l98 -206h-93z" />
    <glyph glyph-name="a" unicode="a" horiz-adv-x="630" 
d="M260 -8q-66 0 -117 32t-79 91t-28 138t28.5 139.5t79 94t116.5 33.5q61 0 108 -30t64 -81l-12 -8v106h149v-507h-149v104l12 -2q-17 -52 -64 -81t-108 -29zM304 107q55 0 85.5 38t30.5 110t-30.5 110.5t-85.5 38.5t-86.5 -40t-31.5 -111t30.5 -108.5t87.5 -37.5z" />
    <glyph glyph-name="b" unicode="b" horiz-adv-x="632" 
d="M61 0v736h151v-345l-12 18q16 50 62.5 80.5t108.5 30.5q66 0 116.5 -32.5t79.5 -91.5t29 -138q0 -80 -29 -139.5t-79.5 -93t-116.5 -33.5q-62 0 -108.5 29t-62.5 81l11 22v-124h-150zM328 107q55 0 85.5 39t30.5 112q0 70 -30 108t-86 38q-57 0 -87 -39t-30 -109
q0 -73 30 -111t87 -38z" />
    <glyph glyph-name="c" unicode="c" horiz-adv-x="509" 
d="M301 -8q-82 0 -142 32t-91.5 90.5t-31.5 138.5t34 140t95 93.5t143 33.5q54 0 106 -17t84 -46l-40 -105q-30 24 -66 37.5t-70 13.5q-61 0 -96 -37t-35 -110q0 -74 34.5 -111t96.5 -37q34 0 70 13t66 38l40 -105q-33 -29 -86 -45.5t-111 -16.5z" />
    <glyph glyph-name="d" unicode="d" horiz-adv-x="630" 
d="M569 0h-149v124l12 -22q-17 -52 -64 -81t-108 -29q-66 0 -116.5 33.5t-79 93t-28.5 139.5q0 79 28 138t79 91.5t117 32.5q61 0 108 -30.5t64 -80.5l-14 -18v345h151v-736zM304 107q55 0 85.5 38t30.5 111q0 70 -30.5 109t-85.5 39q-57 0 -87.5 -38t-30.5 -108
q0 -73 31.5 -112t86.5 -39z" />
    <glyph glyph-name="e" unicode="e" horiz-adv-x="550" 
d="M507 54q-37 -29 -90 -45.5t-107 -16.5q-85 0 -146.5 32t-94.5 91t-33 140q0 78 32 138t87.5 93.5t129.5 33.5q71 0 123 -31.5t80 -89t28 -136.5v-22h-347l2 75h255l-39 -31q1 64 -24.5 96.5t-73.5 32.5q-52 0 -80.5 -37.5t-28.5 -109.5q0 -85 33.5 -123t102.5 -38
q40 0 79 13t72 37z" />
    <glyph glyph-name="f" unicode="f" horiz-adv-x="385" 
d="M4 394v113h352v-113h-352zM376 610q-29 7 -49 7q-21 0 -39 -8t-28 -26t-10 -48v-535h-151v539q0 95 48.5 148.5t142.5 53.5q23 0 44.5 -3t41.5 -10v-118z" />
    <glyph glyph-name="g" unicode="g" horiz-adv-x="634" 
d="M300 -224q-120 0 -210 47l23 112q45 -23 91 -34t91 -11q65 0 97 30t32 92v117l12 -6q-12 -28 -37 -53t-60.5 -40.5t-76.5 -15.5q-66 0 -117 31.5t-80 88.5t-29 133t29 132.5t80 88.5t117 32q62 0 109.5 -30.5t64.5 -80.5l-12 -9v107h150v-483q0 -122 -69.5 -185
t-204.5 -63zM306 129q55 0 86.5 36.5t31.5 101.5q0 63 -31 100t-87 37t-88 -36.5t-32 -100.5t32.5 -101t87.5 -37z" />
    <glyph glyph-name="h" unicode="h" horiz-adv-x="612" 
d="M61 0v736h151v-332l-17 5q26 54 72.5 82.5t107.5 28.5q179 0 179 -213v-307h-151v300q0 54 -19.5 78t-61.5 24q-50 0 -80 -32t-30 -86v-284h-151z" />
    <glyph glyph-name="i" unicode="i" horiz-adv-x="274" 
d="M61 0v507h151v-507h-151zM55 745h163v-142h-163v142z" />
    <glyph glyph-name="j" unicode="j" horiz-adv-x="274" 
d="M-65 -93q15 -4 26 -5.5t23 -1.5q21 0 39 8t28 26t10 48v525h151v-529q0 -95 -48.5 -148.5t-142.5 -53.5q-22 0 -44 3t-42 10v118zM54 745h163v-142h-163v142z" />
    <glyph glyph-name="k" unicode="k" horiz-adv-x="573" 
d="M411 0l-225 258l216 248h181l-249 -281l7 69l255 -294h-185zM61 0v736h151v-736h-151z" />
    <glyph glyph-name="l" unicode="l" horiz-adv-x="274" 
d="M61 0v736h151v-736h-151z" />
    <glyph glyph-name="m" unicode="m" horiz-adv-x="911" 
d="M61 0v362q0 36 -1.5 72.5t-6.5 72.5h142l11 -99l-11 4q21 51 64.5 79.5t104.5 28.5q69 0 109.5 -35.5t53.5 -107.5l-24 27q22 52 70 84t109 32q87 0 129 -53t42 -160v-307h-151v302q0 52 -17 76t-56 24q-45 0 -71 -32.5t-26 -90.5v-279h-151v302q0 52 -17 76t-55 24
q-46 0 -71.5 -32.5t-25.5 -90.5v-279h-151z" />
    <glyph glyph-name="n" unicode="n" horiz-adv-x="612" 
d="M61 0v362q0 36 -1.5 72.5t-6.5 72.5h142l11 -99l-11 1q26 54 72.5 82.5t107.5 28.5q179 0 179 -213v-307h-151v300q0 54 -19.5 78t-61.5 24q-50 0 -80 -32t-30 -86v-284h-151z" />
    <glyph glyph-name="o" unicode="o" horiz-adv-x="604" 
d="M303 -8q-82 0 -142 32t-92.5 91.5t-32.5 140.5t32.5 140t92.5 91.5t142 32.5q80 0 140 -32.5t92.5 -91.5t32.5 -140t-32.5 -140.5t-92.5 -91.5t-140 -32zM303 107q55 0 85 36.5t30 112.5q0 75 -30 111.5t-85 36.5q-56 0 -86.5 -36.5t-30.5 -111.5q0 -76 30 -112.5
t87 -36.5z" />
    <glyph glyph-name="p" unicode="p" horiz-adv-x="632" 
d="M61 -216v578q0 36 -1.5 72.5t-6.5 72.5h142l11 -98h-6q16 51 62.5 81t108.5 30q66 0 116.5 -33.5t79.5 -94t29 -139.5t-29 -138t-79.5 -91t-116.5 -32q-62 0 -108.5 29t-62.5 81l12 19v-337h-151zM328 107q56 0 86 37.5t30 108.5t-30.5 111t-85.5 40q-57 0 -87 -38.5
t-30 -110.5t30 -110t87 -38z" />
    <glyph glyph-name="q" unicode="q" horiz-adv-x="630" 
d="M569 -216h-151v337l14 -19q-17 -52 -64 -81t-108 -29q-66 0 -117 32t-79 91t-28 138t28.5 139.5t79 94t116.5 33.5q61 0 108 -30t64 -81h-9l13 98h142q-5 -36 -7 -72.5t-2 -72.5v-578zM304 107q55 0 85.5 38t30.5 110t-30.5 110.5t-85.5 38.5t-86.5 -40t-31.5 -111
t30.5 -108.5t87.5 -37.5z" />
    <glyph glyph-name="r" unicode="r" horiz-adv-x="410" 
d="M61 0v362q0 36 -1.5 72.5t-6.5 72.5h142l16 -134l-16 8q12 68 57.5 103t103.5 35q17 0 30.5 -3t23.5 -7l-1 -138q-37 17 -74 17q-41 0 -67.5 -15t-41 -42.5t-14.5 -65.5v-265h-151z" />
    <glyph glyph-name="s" unicode="s" horiz-adv-x="504" 
d="M256 -8q-145 0 -229 62l41 105q40 -29 89.5 -44.5t99.5 -15.5q39 0 60 12.5t21 34.5q0 19 -15 29.5t-53 19.5l-83 20q-74 15 -108.5 50t-34.5 93q0 47 27.5 83.5t76.5 57.5t114 21q55 0 106 -16.5t93 -46.5l-42 -101q-39 27 -79.5 41t-78.5 14q-37 0 -58 -13t-21 -36
q0 -17 12.5 -27t44.5 -18l85 -19q78 -18 113 -54t35 -96q0 -72 -57.5 -114t-158.5 -42z" />
    <glyph glyph-name="t" unicode="t" horiz-adv-x="396" 
d="M4 394v113h376v-113h-376zM380 122v-116q-21 -8 -42 -11t-45 -3q-94 0 -143.5 53.5t-49.5 148.5v432l151 49v-478q0 -30 11 -48t29 -25.5t39 -7.5q12 0 23.5 1.5t26.5 4.5z" />
    <glyph glyph-name="u" unicode="u" horiz-adv-x="606" 
d="M247 -8q-95 0 -142 53t-47 160v302h151v-305q0 -47 19.5 -69.5t60.5 -22.5q46 0 75 32t29 85v280h152v-507h-147v101l13 -1q-22 -53 -64.5 -80.5t-99.5 -27.5z" />
    <glyph glyph-name="v" unicode="v" horiz-adv-x="551" 
d="M211 0l-221 506h157l146 -367h-30l149 367h149l-223 -506h-127z" />
    <glyph glyph-name="w" unicode="w" horiz-adv-x="891" 
d="M205 0l-205 507h155l134 -362h-25l133 362h103l134 -362h-22l132 362h146l-205 -507h-127l-148 379h66l-143 -379h-128z" />
    <glyph glyph-name="x" unicode="x" horiz-adv-x="557" 
d="M401 0l-123 155l-85 106l-202 246h178l109 -141l87 -105l214 -261h-178zM156 0h-178l215 261l85 105l109 141h180l-202 -246l-87 -106z" />
    <glyph glyph-name="y" unicode="y" horiz-adv-x="551" 
d="M58 -228l-35 116q47 9 77.5 22.5t50.5 33.5t33 49l39 87l40 59l149 368h149l-233 -533q-31 -70 -71 -111t-90 -62t-109 -29zM227 -38l-237 545h157l146 -368z" />
    <glyph glyph-name="z" unicode="z" horiz-adv-x="530" 
d="M48 0v106l285 320l9 -32h-290v113h433v-102l-289 -325l-6 33h305v-113h-447z" />
    <glyph glyph-name="braceleft" unicode="{" horiz-adv-x="413" 
d="M335 -182q-92 0 -142.5 44t-50.5 130v117q0 54 -13.5 75.5t-46.5 31.5l-42 13v70l42 14q33 11 46.5 32t13.5 75v118q0 85 50.5 129.5t142.5 44.5h64v-113h-37q-28 0 -50 -22.5t-22 -70.5v-123q0 -37 -15 -63.5t-38.5 -41.5t-45.5 -15v4q22 0 45.5 -15t38.5 -42t15 -64
v-122q0 -47 22 -70t50 -23h37v-113h-64z" />
    <glyph glyph-name="bar" unicode="|" horiz-adv-x="293" 
d="M76 -182v894h140v-894h-140z" />
    <glyph glyph-name="braceright" unicode="}" horiz-adv-x="413" 
d="M78 -182h-64v113h38q27 0 48.5 23t21.5 70v122q0 37 16 64t39.5 42t45.5 15v-4q-22 0 -45.5 15t-39.5 41.5t-16 63.5v123q0 48 -21.5 70.5t-48.5 22.5h-38v113h64q92 0 142.5 -44.5t50.5 -129.5v-118q0 -54 14 -75t46 -32l42 -14v-70l-42 -13q-32 -10 -46 -31.5
t-14 -75.5v-117q0 -86 -50 -130t-143 -44z" />
    <glyph glyph-name="asciitilde" unicode="~" horiz-adv-x="600" 
d="M469 365l77 -50q-16 -51 -54 -80t-84 -29q-31 0 -59.5 10.5t-54.5 24.5t-49.5 24.5t-42.5 10.5q-26 0 -43.5 -15.5t-27.5 -46.5l-77 51q17 50 54.5 79.5t83.5 29.5q31 0 59.5 -10.5t54.5 -24t49.5 -24.5t42.5 -11q26 0 43.5 15.5t27.5 45.5z" />
    <glyph glyph-name="uni00A0" unicode="&#xa0;" horiz-adv-x="281" 
 />
    <glyph glyph-name="exclamdown" unicode="&#xa1;" horiz-adv-x="263" 
d="M85 266h92l47 -447l-186 -1zM49 335v161h164v-161h-164z" />
    <glyph glyph-name="cent" unicode="&#xa2;" horiz-adv-x="600" 
d="M343 -8q-80 0 -140 32t-92.5 90.5t-32.5 138.5q0 79 34.5 139t95.5 94t141 34q55 0 107 -17t84 -46l-41 -105q-29 24 -65.5 37.5t-69.5 13.5q-63 0 -97 -38.5t-34 -108.5q0 -73 33.5 -110.5t97.5 -37.5q33 0 69.5 13t65.5 38l41 -105q-34 -29 -86.5 -45.5t-110.5 -16.5z
M300 -119v749h121v-749h-121z" />
    <glyph glyph-name="sterling" unicode="&#xa3;" horiz-adv-x="600" 
d="M39 310v93h391v-93h-391zM268 509v-258q0 -48 -11.5 -79t-40 -51t-79.5 -34l2 38h433v-125h-533v105q42 22 58 49t16 75v291q0 60 29 105.5t80.5 70.5t120.5 25t130.5 -20.5t108.5 -59.5l-51 -112q-47 35 -92 52t-83 17q-43 0 -65.5 -22.5t-22.5 -66.5z" />
    <glyph glyph-name="currency" unicode="&#xa4;" horiz-adv-x="600" 
d="M298 -3q-68 0 -123.5 34t-88.5 90.5t-33 125.5q0 70 33 126.5t88.5 90.5t123.5 34t123 -34t88 -90.5t33 -126.5q0 -69 -33 -125.5t-88 -90.5t-123 -34zM101 -11l-56 54l101 105l57 -56zM496 -11l-107 110l52 59l109 -115zM298 114q34 0 62.5 18.5t45 48.5t16.5 66
q0 37 -16.5 67t-45 48t-62.5 18q-35 1 -63 -17t-44.5 -48.5t-16.5 -67.5q0 -36 16 -66t44.5 -48.5t63.5 -18.5zM130 364l-85 87l57 56l88 -90zM460 354l-60 59l93 96l60 -60z" />
    <glyph glyph-name="yen" unicode="&#xa5;" horiz-adv-x="600" 
d="M221 0v406l33 -106l-280 412h168l174 -270h-32l174 270h168l-281 -412l33 106v-406h-157zM64 159v92h472v-92h-472zM64 314v93h472v-93h-472z" />
    <glyph glyph-name="brokenbar" unicode="&#xa6;" horiz-adv-x="293" 
d="M76 375v337h140v-337h-140zM76 -182v338h140v-338h-140z" />
    <glyph glyph-name="section" unicode="&#xa7;" horiz-adv-x="585" 
d="M441 56l-61 66q16 12 27.5 34t11.5 40q0 28 -20 53.5t-61 44.5l-133 66q-43 20 -72.5 46.5t-45 57t-15.5 63.5q0 88 63 139.5t171 52.5q59 1 110.5 -14t91.5 -45l-39 -101q-35 24 -74 37t-77 13q-47 0 -73 -18t-26 -51q0 -23 15.5 -41t48.5 -33l131 -60q72 -32 106 -76
t34 -103q0 -54 -29 -98.5t-84 -72.5zM274 -189q-66 1 -121 16.5t-95 45.5l39 104q42 -27 86 -41t87 -14q44 0 70 18.5t26 49.5q0 25 -15 42t-49 33l-132 60q-73 32 -106 74.5t-33 103.5q0 53 26 95t75 71l68 -64q-15 -15 -25 -34.5t-10 -36.5q0 -28 20.5 -52.5t60.5 -45.5
l135 -62q42 -20 71.5 -47t45 -58t15.5 -66q0 -93 -62.5 -143t-176.5 -49z" />
    <glyph glyph-name="dieresis" unicode="&#xa8;" horiz-adv-x="300" 
d="M178 729h139v-133h-139v133zM-14 729h139v-133h-139v133z" />
    <glyph glyph-name="copyright" unicode="&#xa9;" horiz-adv-x="823" 
d="M412 -5q-77 0 -142.5 27.5t-114.5 77t-76.5 115.5t-27.5 142q0 77 27.5 142.5t76.5 114t114.5 76t142.5 27.5t142.5 -27.5t114.5 -76t76.5 -114t27.5 -142.5q0 -76 -27.5 -142t-76.5 -115.5t-114.5 -77t-142.5 -27.5zM412 58q64 0 118 22.5t93.5 63t61.5 95t22 118.5
q0 63 -22 117.5t-61.5 94.5t-93.5 62.5t-118 22.5t-118 -22.5t-94 -62.5t-62 -94.5t-22 -117.5q0 -64 22 -118.5t62 -95t94 -63t118 -22.5zM426 138q-101 0 -160 59.5t-59 159.5q0 65 26.5 114t76 76t116.5 27q47 0 87.5 -12t69.5 -37l-34 -92q-17 12 -45.5 24t-56.5 12
q-49 0 -76.5 -29.5t-27.5 -82.5q0 -55 27.5 -84.5t76.5 -29.5q28 0 56.5 12t45.5 24l34 -92q-29 -24 -69.5 -36.5t-87.5 -12.5z" />
    <glyph glyph-name="ordfeminine" unicode="&#xaa;" horiz-adv-x="342" 
d="M119 405q-30 0 -53.5 14t-36.5 36.5t-13 46.5q0 43 36 64.5t127 21.5h36v-56h-22q-28 0 -42 -3.5t-18.5 -9t-4.5 -12.5q0 -9 8.5 -15.5t22.5 -6.5q18 0 30 10.5t12 30.5v73q0 15 -9.5 21.5t-33.5 6.5t-48.5 -6t-47.5 -17l-23 86q26 12 60.5 19.5t73.5 7.5q74 0 110.5 -34
t36.5 -106v-167h-116v67l2 -10q-10 -31 -33 -46.5t-54 -15.5z" />
    <glyph glyph-name="guillemotleft" unicode="&#xab;" horiz-adv-x="529" 
d="M157 85l-136 182l136 184h126l-131 -183l130 -183h-125zM381 85l-136 182l136 184h126l-131 -183l130 -183h-125z" />
    <glyph glyph-name="logicalnot" unicode="&#xac;" horiz-adv-x="600" 
d="M546 443v-307h-106v203h-386v104h492z" />
    <glyph glyph-name="uni00AD" unicode="&#xad;" horiz-adv-x="444" 
d="M67 211v118h311v-118h-311z" />
    <glyph glyph-name="registered" unicode="&#xae;" horiz-adv-x="823" 
d="M412 -5q-77 0 -142.5 27.5t-114.5 77t-76.5 115.5t-27.5 142q0 77 27.5 142.5t76.5 114t114.5 76t142.5 27.5t142.5 -27.5t114.5 -76t76.5 -114t27.5 -142.5q0 -76 -27.5 -142t-76.5 -115.5t-114.5 -77t-142.5 -27.5zM412 58q64 0 118 22.5t93.5 63t61.5 95t22 118.5
q0 63 -22 117.5t-61.5 94.5t-93.5 62.5t-118 22.5t-118 -22.5t-94 -62.5t-62 -94.5t-22 -117.5q0 -64 22 -118.5t62 -95t94 -63t118 -22.5zM236 143v428h204q79 0 120.5 -37.5t41.5 -98.5q0 -58 -40 -96.5t-115 -38.5l41 7q24 0 47 -12t38 -39l58 -113h-149l-68 138
q-3 7 -8.5 11t-12.5 4h-24v-153h-133zM368 389h54q27 0 40 8.5t13 30.5q0 24 -13.5 33t-39.5 9h-54v-81z" />
    <glyph glyph-name="macron" unicode="&#xaf;" horiz-adv-x="300" 
d="M-6 615v95h315v-95h-315z" />
    <glyph glyph-name="degree" unicode="&#xb0;" horiz-adv-x="372" 
d="M186 413q-44 0 -79 20t-55.5 54.5t-20.5 77.5q0 44 20.5 78.5t55.5 54t79 19.5t79 -19.5t55 -54t20 -78.5q0 -43 -20 -77.5t-55 -54.5t-79 -20zM186 490q30 0 51.5 21t21.5 54t-21.5 54t-51.5 21q-31 0 -52 -21t-21 -54t21 -54t52 -21z" />
    <glyph glyph-name="plusminus" unicode="&#xb1;" horiz-adv-x="600" 
d="M546 392v-104h-492v104h492zM248 536h104v-392h-104v392zM546 104v-104h-492v104h492z" />
    <glyph glyph-name="uni00B2" unicode="&#xb2;" horiz-adv-x="380" 
d="M43 285v95l133 140q16 18 25.5 33.5t9.5 30.5q0 16 -11 25t-36 9q-26 0 -56 -9.5t-57 -25.5l-22 94q30 17 74 28t84 11q70 0 112.5 -34t42.5 -89q0 -35 -17 -67.5t-65 -75.5l-96 -88l-8 24h195v-101h-308z" />
    <glyph glyph-name="uni00B3" unicode="&#xb3;" horiz-adv-x="380" 
d="M183 280q-42 0 -86 10.5t-73 28.5l20 94q29 -16 60.5 -25.5t67.5 -9.5q32 0 46 9.5t14 26.5q0 19 -13.5 28t-41.5 9h-72v99h60q29 0 42 8t13 27q0 15 -12.5 24t-37.5 9q-28 0 -60 -9.5t-59 -25.5l-22 94q30 17 73 28t78 11q80 0 120.5 -35t40.5 -84q0 -34 -19 -59.5
t-55 -34.5l2 4q39 -10 62 -36.5t23 -67.5q0 -33 -19 -61t-57 -45t-95 -17z" />
    <glyph glyph-name="acute" unicode="&#xb4;" horiz-adv-x="300" 
d="M198 561h-93l98 206h149z" />
    <glyph glyph-name="uni00B5" unicode="&#xb5;" horiz-adv-x="606" 
d="M545 507v-507h-147v101l13 -1q-22 -53 -64.5 -80.5t-99.5 -27.5q-20 0 -35 3t-32 8l29 41v-260h-151v723h151v-305q0 -47 19.5 -69.5t60.5 -22.5q46 0 75 32t29 85v280h152z" />
    <glyph glyph-name="paragraph" unicode="&#xb6;" horiz-adv-x="637" 
d="M565 712v-894h-101v804h-108v-804h-101v451q-67 0 -117 28t-78 78t-28 116t28 116t79 77.5t119 27.5h307z" />
    <glyph glyph-name="periodcentered" unicode="&#xb7;" horiz-adv-x="263" 
d="M49 352h164v-162h-164v162z" />
    <glyph glyph-name="cedilla" unicode="&#xb8;" horiz-adv-x="300" 
d="M138 -199q-21 0 -47.5 4.5t-47.5 13.5l12 59q24 -7 43 -10.5t35 -3.5q21 0 34 6t13 20q0 20 -33 20q-9 0 -19 -2t-17 -5l-20 21l13 96h81l-11 -76l-37 7q11 4 26 6.5t26 2.5q39 0 62 -19t23 -51q0 -38 -34.5 -63.5t-101.5 -25.5z" />
    <glyph glyph-name="uni00B9" unicode="&#xb9;" horiz-adv-x="380" 
d="M153 348v247l53 8l-130 -68v116l115 61h91v-364h-129zM71 285v101h292v-101h-292z" />
    <glyph glyph-name="ordmasculine" unicode="&#xba;" horiz-adv-x="377" 
d="M189 405q-60 0 -98.5 22t-56.5 58t-18 77t18 76.5t56.5 57t98.5 21.5q59 0 97.5 -21.5t57 -57t18.5 -76.5t-18.5 -77t-57 -58t-97.5 -22zM189 502q23 0 37 16t14 44q0 30 -14 44t-37 14t-37 -14t-14 -44q0 -28 14 -44t37 -16z" />
    <glyph glyph-name="guillemotright" unicode="&#xbb;" horiz-adv-x="529" 
d="M149 85h-125l130 183l-132 183h127l135 -184zM373 85h-125l130 183l-132 183h127l135 -184z" />
    <glyph glyph-name="onequarter" unicode="&#xbc;" horiz-adv-x="962" 
d="M153 348v247l53 8l-130 -68v116l115 61h91v-364h-129zM71 285v101h292v-101h-292zM322 -30l-98 57l416 715l97 -57zM782 0v290l19 6l-121 -163l-5 25h281v-94h-362v90l201 273h101v-427h-114z" />
    <glyph glyph-name="onehalf" unicode="&#xbd;" horiz-adv-x="962" 
d="M153 348v247l53 8l-130 -68v116l115 61h91v-364h-129zM71 285v101h292v-101h-292zM322 -30l-98 57l416 715l97 -57zM625 0v95l133 140q16 18 25.5 33.5t9.5 30.5q0 16 -11 25t-36 9q-26 0 -56 -9.5t-57 -25.5l-22 94q30 17 74 28t84 11q70 0 112.5 -34t42.5 -89
q0 -35 -17 -67.5t-65 -75.5l-96 -88l-8 24h195v-101h-308z" />
    <glyph glyph-name="threequarters" unicode="&#xbe;" horiz-adv-x="962" 
d="M183 280q-42 0 -86 10.5t-73 28.5l20 94q29 -16 60.5 -25.5t67.5 -9.5q32 0 46 9.5t14 26.5q0 19 -13.5 28t-41.5 9h-72v99h60q29 0 42 8t13 27q0 15 -12.5 24t-37.5 9q-28 0 -60 -9.5t-59 -25.5l-22 94q30 17 73 28t78 11q80 0 120.5 -35t40.5 -84q0 -34 -19 -59.5
t-55 -34.5l2 4q39 -10 62 -36.5t23 -67.5q0 -33 -19 -61t-57 -45t-95 -17zM322 -30l-98 57l416 715l97 -57zM782 0v290l19 6l-121 -163l-5 25h281v-94h-362v90l201 273h101v-427h-114z" />
    <glyph glyph-name="questiondown" unicode="&#xbf;" horiz-adv-x="473" 
d="M230 -190q-59 0 -109.5 20t-80.5 58t-30 93q0 39 17 68t43 51.5t52.5 43t46.5 42.5t25 52l6 33h89v-51q0 -40 -12.5 -68t-31.5 -47.5t-37.5 -35.5t-31 -33t-12.5 -41q0 -27 19 -44.5t59 -17.5q33 0 69 10.5t73 33.5v-125q-36 -23 -75 -32.5t-79 -9.5zM161 335v161h162
v-161h-162z" />
    <glyph glyph-name="Agrave" unicode="&#xc0;" horiz-adv-x="759" 
d="M146 0h-157l327 712h126l327 -712h-155l-252 588h38zM137 158l60 119h356l59 -119h-475zM332 773l-150 157h140l103 -157h-93z" />
    <glyph glyph-name="Aacute" unicode="&#xc1;" horiz-adv-x="759" 
d="M146 0h-157l327 712h126l327 -712h-155l-252 588h38zM137 158l60 119h356l59 -119h-475zM425 773h-93l103 157h140z" />
    <glyph glyph-name="Acircumflex" unicode="&#xc2;" horiz-adv-x="759" 
d="M146 0h-157l327 712h126l327 -712h-155l-252 588h38zM137 158l60 119h356l59 -119h-475zM316 773h-114l134 157h85l134 -157h-114l-62 86z" />
    <glyph glyph-name="Atilde" unicode="&#xc3;" horiz-adv-x="759" 
d="M146 0h-157l327 712h126l327 -712h-155l-252 588h38zM137 158l60 119h356l59 -119h-475zM203 780q0 76 32 111.5t77 35.5q26 0 49.5 -13t44.5 -26.5t40 -13.5q18 0 30 13t14 37h64q0 -77 -32 -112t-77 -35q-26 0 -49.5 13t-44.5 26t-40 13q-18 0 -30 -13t-14 -36h-64z
" />
    <glyph glyph-name="Adieresis" unicode="&#xc4;" horiz-adv-x="759" 
d="M146 0h-157l327 712h126l327 -712h-155l-252 588h38zM137 158l60 119h356l59 -119h-475zM405 918h139v-132h-139v132zM213 918h139v-132h-139v132z" />
    <glyph glyph-name="Aring" unicode="&#xc5;" horiz-adv-x="759" 
d="M380 677q-47 0 -78.5 31t-31.5 78q0 45 31.5 76.5t78.5 31.5q45 0 77.5 -31.5t32.5 -76.5q0 -47 -32.5 -78t-77.5 -31zM380 739q19 0 31.5 14t12.5 33t-12.5 32t-31.5 13t-31.5 -13t-12.5 -32t12.5 -33t31.5 -14zM146 0h-157l327 712h126l327 -712h-155l-252 588h38z
M137 158l60 119h356l59 -119h-475z" />
    <glyph glyph-name="AE" unicode="&#xc6;" horiz-adv-x="1010" 
d="M-31 0l448 712h556v-122h-503l31 21l-363 -611h-169zM138 158l60 119h359l34 -119h-453zM549 0l-44 642h140l38 -520h290v-122h-424zM572 301v122h380v-122h-380z" />
    <glyph glyph-name="Ccedilla" unicode="&#xc7;" horiz-adv-x="685" 
d="M405 -9q-109 0 -189 45t-123 127.5t-43 193.5q0 110 43 192t123 127t189 45q71 0 135 -21.5t106 -60.5l-49 -112q-48 36 -93.5 52.5t-95.5 16.5q-95 0 -147 -60.5t-52 -178.5t52 -179.5t147 -61.5q50 0 95.5 16.5t93.5 52.5l49 -112q-42 -39 -106 -60.5t-135 -21.5z
M384 -199q-21 0 -47.5 4.5t-47.5 13.5l12 59q24 -7 43 -10.5t35 -3.5q21 0 34 6t13 20q0 20 -33 20q-9 0 -19 -2t-17 -5l-20 21l13 96h81l-11 -76l-37 7q11 4 26 6.5t26 2.5q39 0 62 -19t23 -51q0 -38 -34.5 -63.5t-101.5 -25.5z" />
    <glyph glyph-name="Egrave" unicode="&#xc8;" horiz-adv-x="599" 
d="M71 0v712h491v-121h-338v-168h317v-122h-317v-180h338v-121h-491zM286 773l-150 157h140l103 -157h-93z" />
    <glyph glyph-name="Eacute" unicode="&#xc9;" horiz-adv-x="599" 
d="M71 0v712h491v-121h-338v-168h317v-122h-317v-180h338v-121h-491zM379 773h-93l103 157h140z" />
    <glyph glyph-name="Ecircumflex" unicode="&#xca;" horiz-adv-x="599" 
d="M71 0v712h491v-121h-338v-168h317v-122h-317v-180h338v-121h-491zM270 773h-114l134 157h85l134 -157h-114l-62 86z" />
    <glyph glyph-name="Edieresis" unicode="&#xcb;" horiz-adv-x="599" 
d="M71 0v712h491v-121h-338v-168h317v-122h-317v-180h338v-121h-491zM359 918h139v-132h-139v132zM167 918h139v-132h-139v132z" />
    <glyph glyph-name="Igrave" unicode="&#xcc;" horiz-adv-x="299" 
d="M71 0v712h156v-712h-156zM102 773l-150 157h140l103 -157h-93z" />
    <glyph glyph-name="Iacute" unicode="&#xcd;" horiz-adv-x="299" 
d="M71 0v712h156v-712h-156zM195 773h-93l103 157h140z" />
    <glyph glyph-name="Icircumflex" unicode="&#xce;" horiz-adv-x="299" 
d="M71 0v712h156v-712h-156zM86 773h-114l134 157h85l134 -157h-114l-62 86z" />
    <glyph glyph-name="Idieresis" unicode="&#xcf;" horiz-adv-x="299" 
d="M71 0v712h156v-712h-156zM175 918h139v-132h-139v132zM-17 918h139v-132h-139v132z" />
    <glyph glyph-name="Eth" unicode="&#xd0;" horiz-adv-x="801" 
d="M14 301v118h431v-118h-431zM101 0v712h276q117 0 200.5 -42t128 -121.5t44.5 -191.5q0 -113 -44 -192.5t-127.5 -122t-201.5 -42.5h-276zM258 126h108q114 0 170.5 57.5t56.5 173.5q0 229 -227 229h-108v-460z" />
    <glyph glyph-name="Ntilde" unicode="&#xd1;" horiz-adv-x="760" 
d="M71 0v712h115l384 -490l-29 -19v509h147v-712h-116l-382 488l27 21v-509h-146zM203 780q0 76 32 111.5t77 35.5q26 0 49.5 -13t44.5 -26.5t40 -13.5q18 0 30 13t14 37h64q0 -77 -32 -112t-77 -35q-26 0 -49.5 13t-44.5 26t-40 13q-18 0 -30 -13t-14 -36h-64z" />
    <glyph glyph-name="Ograve" unicode="&#xd2;" horiz-adv-x="795" 
d="M398 -9q-107 0 -185 45t-120.5 127t-42.5 194q0 111 42.5 193t120.5 126.5t185 44.5t184.5 -44.5t119.5 -126.5t42 -193q0 -112 -42 -194t-119.5 -127t-184.5 -45zM398 112q88 0 139.5 62.5t51.5 182.5t-51.5 181.5t-139.5 61.5q-89 0 -140 -61.5t-51 -181.5
q0 -121 51 -183t140 -62zM350 773l-150 157h140l103 -157h-93z" />
    <glyph glyph-name="Oacute" unicode="&#xd3;" horiz-adv-x="795" 
d="M398 -9q-107 0 -185 45t-120.5 127t-42.5 194q0 111 42.5 193t120.5 126.5t185 44.5t184.5 -44.5t119.5 -126.5t42 -193q0 -112 -42 -194t-119.5 -127t-184.5 -45zM398 112q88 0 139.5 62.5t51.5 182.5t-51.5 181.5t-139.5 61.5q-89 0 -140 -61.5t-51 -181.5
q0 -121 51 -183t140 -62zM443 773h-93l103 157h140z" />
    <glyph glyph-name="Ocircumflex" unicode="&#xd4;" horiz-adv-x="795" 
d="M398 -9q-107 0 -185 45t-120.5 127t-42.5 194q0 111 42.5 193t120.5 126.5t185 44.5t184.5 -44.5t119.5 -126.5t42 -193q0 -112 -42 -194t-119.5 -127t-184.5 -45zM398 112q88 0 139.5 62.5t51.5 182.5t-51.5 181.5t-139.5 61.5q-89 0 -140 -61.5t-51 -181.5
q0 -121 51 -183t140 -62zM334 773h-114l134 157h85l134 -157h-114l-62 86z" />
    <glyph glyph-name="Otilde" unicode="&#xd5;" horiz-adv-x="795" 
d="M398 -9q-107 0 -185 45t-120.5 127t-42.5 194q0 111 42.5 193t120.5 126.5t185 44.5t184.5 -44.5t119.5 -126.5t42 -193q0 -112 -42 -194t-119.5 -127t-184.5 -45zM398 112q88 0 139.5 62.5t51.5 182.5t-51.5 181.5t-139.5 61.5q-89 0 -140 -61.5t-51 -181.5
q0 -121 51 -183t140 -62zM221 780q0 76 32 111.5t77 35.5q26 0 49.5 -13t44.5 -26.5t40 -13.5q18 0 30 13t14 37h64q0 -77 -32 -112t-77 -35q-26 0 -49.5 13t-44.5 26t-40 13q-18 0 -30 -13t-14 -36h-64z" />
    <glyph glyph-name="Odieresis" unicode="&#xd6;" horiz-adv-x="795" 
d="M398 -9q-107 0 -185 45t-120.5 127t-42.5 194q0 111 42.5 193t120.5 126.5t185 44.5t184.5 -44.5t119.5 -126.5t42 -193q0 -112 -42 -194t-119.5 -127t-184.5 -45zM398 112q88 0 139.5 62.5t51.5 182.5t-51.5 181.5t-139.5 61.5q-89 0 -140 -61.5t-51 -181.5
q0 -121 51 -183t140 -62zM423 918h139v-132h-139v132zM231 918h139v-132h-139v132z" />
    <glyph glyph-name="multiply" unicode="&#xd7;" horiz-adv-x="600" 
d="M463 526l73 -73l-399 -399l-73 73zM137 526l399 -399l-73 -73l-399 399z" />
    <glyph glyph-name="Oslash" unicode="&#xd8;" horiz-adv-x="795" 
d="M398 -9q-107 0 -185 45t-120.5 127t-42.5 194q0 111 42.5 193t120.5 126.5t185 44.5t184.5 -44.5t119.5 -126.5t42 -193q0 -112 -42 -194t-119.5 -127t-184.5 -45zM218 -68l-100 60l459 788l100 -60zM398 112q88 0 139.5 62.5t51.5 182.5t-51.5 181.5t-139.5 61.5
q-89 0 -140 -61.5t-51 -181.5q0 -121 51 -183t140 -62z" />
    <glyph glyph-name="Ugrave" unicode="&#xd9;" horiz-adv-x="746" 
d="M374 -9q-151 0 -228.5 77t-77.5 226v418h152v-425q0 -85 39 -130t115 -45q73 0 112 45t39 130v425h155v-418q0 -148 -79 -225.5t-227 -77.5zM327 773l-150 157h140l103 -157h-93z" />
    <glyph glyph-name="Uacute" unicode="&#xda;" horiz-adv-x="746" 
d="M374 -9q-151 0 -228.5 77t-77.5 226v418h152v-425q0 -85 39 -130t115 -45q73 0 112 45t39 130v425h155v-418q0 -148 -79 -225.5t-227 -77.5zM420 773h-93l103 157h140z" />
    <glyph glyph-name="Ucircumflex" unicode="&#xdb;" horiz-adv-x="746" 
d="M374 -9q-151 0 -228.5 77t-77.5 226v418h152v-425q0 -85 39 -130t115 -45q73 0 112 45t39 130v425h155v-418q0 -148 -79 -225.5t-227 -77.5zM311 773h-114l134 157h85l134 -157h-114l-62 86z" />
    <glyph glyph-name="Udieresis" unicode="&#xdc;" horiz-adv-x="746" 
d="M374 -9q-151 0 -228.5 77t-77.5 226v418h152v-425q0 -85 39 -130t115 -45q73 0 112 45t39 130v425h155v-418q0 -148 -79 -225.5t-227 -77.5zM400 918h139v-132h-139v132zM208 918h139v-132h-139v132z" />
    <glyph glyph-name="Yacute" unicode="&#xdd;" horiz-adv-x="642" 
d="M242 0v320l33 -90l-326 482h177l215 -337h-42l217 337h178l-326 -482l31 90v-320h-157zM367 773h-93l103 157h140z" />
    <glyph glyph-name="Thorn" unicode="&#xde;" horiz-adv-x="676" 
d="M205 155v120h169q63 0 92.5 21t29.5 66t-29.5 65.5t-92.5 20.5h-169v121h194q116 0 180 -55t64 -152t-65 -152t-179 -55h-194zM71 0v712h153v-712h-153z" />
    <glyph glyph-name="germandbls" unicode="&#xdf;" horiz-adv-x="696" 
d="M61 0v462q0 140 74 211.5t212 71.5q111 0 176 -49.5t65 -139.5q0 -39 -15 -74.5t-54.5 -66.5t-112.5 -56v27q93 -19 152.5 -48.5t88 -72t28.5 -101.5q0 -52 -26.5 -90.5t-74.5 -60t-113 -21.5q-62 0 -114.5 16t-88.5 46l42 109q37 -32 79.5 -46.5t85.5 -13.5q38 1 55 21
t17 47q0 28 -22 52t-72.5 45t-134.5 42v111q54 17 84 36t42 42.5t12 50.5q0 43 -25.5 64t-74.5 21q-63 0 -98.5 -37t-35.5 -115v-483h-151z" />
    <glyph glyph-name="agrave" unicode="&#xe0;" horiz-adv-x="630" 
d="M260 -8q-66 0 -117 32t-79 91t-28 138t28.5 139.5t79 94t116.5 33.5q61 0 108 -30t64 -81l-12 -8v106h149v-507h-149v104l12 -2q-17 -52 -64 -81t-108 -29zM304 107q55 0 85.5 38t30.5 110t-30.5 110.5t-85.5 38.5t-86.5 -40t-31.5 -111t30.5 -108.5t87.5 -37.5zM268 572
l-154 206h149l98 -206h-93z" />
    <glyph glyph-name="aacute" unicode="&#xe1;" horiz-adv-x="630" 
d="M260 -8q-66 0 -117 32t-79 91t-28 138t28.5 139.5t79 94t116.5 33.5q61 0 108 -30t64 -81l-12 -8v106h149v-507h-149v104l12 -2q-17 -52 -64 -81t-108 -29zM304 107q55 0 85.5 38t30.5 110t-30.5 110.5t-85.5 38.5t-86.5 -40t-31.5 -111t30.5 -108.5t87.5 -37.5zM361 572
h-93l98 206h149z" />
    <glyph glyph-name="acircumflex" unicode="&#xe2;" horiz-adv-x="630" 
d="M260 -8q-66 0 -117 32t-79 91t-28 138t28.5 139.5t79 94t116.5 33.5q61 0 108 -30t64 -81l-12 -8v106h149v-507h-149v104l12 -2q-17 -52 -64 -81t-108 -29zM304 107q55 0 85.5 38t30.5 110t-30.5 110.5t-85.5 38.5t-86.5 -40t-31.5 -111t30.5 -108.5t87.5 -37.5zM256 572
h-118l131 206h91l131 -206h-118l-58 117z" />
    <glyph glyph-name="atilde" unicode="&#xe3;" horiz-adv-x="630" 
d="M260 -8q-66 0 -117 32t-79 91t-28 138t28.5 139.5t79 94t116.5 33.5q61 0 108 -30t64 -81l-12 -8v106h149v-507h-149v104l12 -2q-17 -52 -64 -81t-108 -29zM304 107q55 0 85.5 38t30.5 110t-30.5 110.5t-85.5 38.5t-86.5 -40t-31.5 -111t30.5 -108.5t87.5 -37.5zM139 604
q0 76 32 111t77 35q26 0 49.5 -13t44.5 -26t40 -13q18 0 30 13t14 36h64q0 -76 -32 -111t-77 -35q-26 0 -49.5 13t-44.5 26t-40 13q-18 0 -30 -13t-14 -36h-64z" />
    <glyph glyph-name="adieresis" unicode="&#xe4;" horiz-adv-x="630" 
d="M260 -8q-66 0 -117 32t-79 91t-28 138t28.5 139.5t79 94t116.5 33.5q61 0 108 -30t64 -81l-12 -8v106h149v-507h-149v104l12 -2q-17 -52 -64 -81t-108 -29zM304 107q55 0 85.5 38t30.5 110t-30.5 110.5t-85.5 38.5t-86.5 -40t-31.5 -111t30.5 -108.5t87.5 -37.5zM341 740
h139v-133h-139v133zM149 740h139v-133h-139v133z" />
    <glyph glyph-name="aring" unicode="&#xe5;" horiz-adv-x="630" 
d="M260 -8q-66 0 -117 32t-79 91t-28 138t28.5 139.5t79 94t116.5 33.5q61 0 108 -30t64 -81l-12 -8v106h149v-507h-149v104l12 -2q-17 -52 -64 -81t-108 -29zM304 107q55 0 85.5 38t30.5 110t-30.5 110.5t-85.5 38.5t-86.5 -40t-31.5 -111t30.5 -108.5t87.5 -37.5zM315 567
q-47 0 -79 31t-32 78q0 45 32 76.5t79 31.5q30 0 55.5 -14.5t40 -39t14.5 -54.5q0 -47 -32 -78t-78 -31zM315 629q19 0 31 13t12 34q0 19 -12 32t-31 13q-20 0 -32 -13t-12 -32q0 -20 12 -33.5t32 -13.5z" />
    <glyph glyph-name="ae" unicode="&#xe6;" horiz-adv-x="866" 
d="M627 -8q-118 0 -183 68.5t-66 194.5q0 79 29.5 138.5t82.5 93t124 33.5q65 0 114 -32.5t76 -90.5t27 -135v-21h-340l1 75h249l-38 -31q1 62 -23 95.5t-70 33.5q-51 0 -79 -38.5t-28 -124.5q0 -65 31 -105t103 -40q35 0 73 12.5t73 37.5l39 -102q-36 -29 -89 -45.5
t-106 -16.5zM242 -8q-58 0 -103.5 21t-71.5 58.5t-26 86.5q0 56 28 90.5t89.5 51t163.5 16.5h44v-73h-35q-53 0 -84.5 -9t-45.5 -26.5t-14 -43.5q0 -31 21 -49t54 -18q32 0 53.5 14.5t32.5 40.5t11 57v111q0 46 -19 66t-64 20q-42 0 -87.5 -13.5t-87.5 -38.5l-39 103
q28 18 66 32.5t79 22.5t77 8q105 0 155 -53.5t50 -164.5v-96l-50 -9q0 -98 -54.5 -151.5t-142.5 -53.5z" />
    <glyph glyph-name="ccedilla" unicode="&#xe7;" horiz-adv-x="509" 
d="M301 -8q-82 0 -142 32t-91.5 90.5t-31.5 138.5t34 140t95 93.5t143 33.5q54 0 106 -17t84 -46l-40 -105q-30 24 -66 37.5t-70 13.5q-61 0 -96 -37t-35 -110q0 -74 34.5 -111t96.5 -37q34 0 70 13t66 38l40 -105q-33 -29 -86 -45.5t-111 -16.5zM280 -199q-21 0 -47.5 4.5
t-47.5 13.5l12 59q24 -7 43 -10.5t35 -3.5q21 0 34 6t13 20q0 20 -33 20q-9 0 -19 -2t-17 -5l-20 21l13 96h81l-11 -76l-37 7q11 4 26 6.5t26 2.5q39 0 62 -19t23 -51q0 -38 -34.5 -63.5t-101.5 -25.5z" />
    <glyph glyph-name="egrave" unicode="&#xe8;" horiz-adv-x="550" 
d="M507 54q-37 -29 -90 -45.5t-107 -16.5q-85 0 -146.5 32t-94.5 91t-33 140q0 78 32 138t87.5 93.5t129.5 33.5q71 0 123 -31.5t80 -89t28 -136.5v-22h-347l2 75h255l-39 -31q1 64 -24.5 96.5t-73.5 32.5q-52 0 -80.5 -37.5t-28.5 -109.5q0 -85 33.5 -123t102.5 -38
q40 0 79 13t72 37zM238 572l-154 206h149l98 -206h-93z" />
    <glyph glyph-name="eacute" unicode="&#xe9;" horiz-adv-x="550" 
d="M507 54q-37 -29 -90 -45.5t-107 -16.5q-85 0 -146.5 32t-94.5 91t-33 140q0 78 32 138t87.5 93.5t129.5 33.5q71 0 123 -31.5t80 -89t28 -136.5v-22h-347l2 75h255l-39 -31q1 64 -24.5 96.5t-73.5 32.5q-52 0 -80.5 -37.5t-28.5 -109.5q0 -85 33.5 -123t102.5 -38
q40 0 79 13t72 37zM331 572h-93l98 206h149z" />
    <glyph glyph-name="ecircumflex" unicode="&#xea;" horiz-adv-x="550" 
d="M507 54q-37 -29 -90 -45.5t-107 -16.5q-85 0 -146.5 32t-94.5 91t-33 140q0 78 32 138t87.5 93.5t129.5 33.5q71 0 123 -31.5t80 -89t28 -136.5v-22h-347l2 75h255l-39 -31q1 64 -24.5 96.5t-73.5 32.5q-52 0 -80.5 -37.5t-28.5 -109.5q0 -85 33.5 -123t102.5 -38
q40 0 79 13t72 37zM226 572h-118l131 206h91l131 -206h-118l-58 117z" />
    <glyph glyph-name="edieresis" unicode="&#xeb;" horiz-adv-x="550" 
d="M507 54q-37 -29 -90 -45.5t-107 -16.5q-85 0 -146.5 32t-94.5 91t-33 140q0 78 32 138t87.5 93.5t129.5 33.5q71 0 123 -31.5t80 -89t28 -136.5v-22h-347l2 75h255l-39 -31q1 64 -24.5 96.5t-73.5 32.5q-52 0 -80.5 -37.5t-28.5 -109.5q0 -85 33.5 -123t102.5 -38
q40 0 79 13t72 37zM311 740h139v-133h-139v133zM119 740h139v-133h-139v133z" />
    <glyph glyph-name="igrave" unicode="&#xec;" horiz-adv-x="274" 
d="M61 0v507h151v-507h-151zM90 572l-154 206h149l98 -206h-93z" />
    <glyph glyph-name="iacute" unicode="&#xed;" horiz-adv-x="274" 
d="M61 0v507h151v-507h-151zM183 572h-93l98 206h149z" />
    <glyph glyph-name="icircumflex" unicode="&#xee;" horiz-adv-x="274" 
d="M61 0v507h151v-507h-151zM78 572h-118l131 206h91l131 -206h-118l-58 117z" />
    <glyph glyph-name="idieresis" unicode="&#xef;" horiz-adv-x="274" 
d="M61 0v507h151v-507h-151zM163 740h139v-133h-139v133zM-29 740h139v-133h-139v133z" />
    <glyph glyph-name="eth" unicode="&#xf0;" horiz-adv-x="612" 
d="M297 -8q-78 0 -136.5 30.5t-91.5 84t-33 125.5q0 70 31.5 124t87 84t128.5 30q77 0 124.5 -35t67.5 -106l-41 5q0 86 -37.5 151t-101 105.5t-142.5 52.5l34 105q95 -14 168 -56t122 -103t74 -134t25 -149q0 -150 -73 -232t-206 -82zM303 107q55 0 85 32.5t30 92.5
q0 61 -29.5 93.5t-85.5 32.5q-57 0 -87 -32.5t-30 -93.5q0 -62 29.5 -93.5t87.5 -31.5zM175 493l-22 78l397 110l20 -77z" />
    <glyph glyph-name="ntilde" unicode="&#xf1;" horiz-adv-x="612" 
d="M61 0v362q0 36 -1.5 72.5t-6.5 72.5h142l11 -99l-11 1q26 54 72.5 82.5t107.5 28.5q179 0 179 -213v-307h-151v300q0 54 -19.5 78t-61.5 24q-50 0 -80 -32t-30 -86v-284h-151zM132 604q0 76 32 111t77 35q26 0 49.5 -13t44.5 -26t40 -13q18 0 30 13t14 36h64
q0 -76 -32 -111t-77 -35q-26 0 -49.5 13t-44.5 26t-40 13q-18 0 -30 -13t-14 -36h-64z" />
    <glyph glyph-name="ograve" unicode="&#xf2;" horiz-adv-x="604" 
d="M303 -8q-82 0 -142 32t-92.5 91.5t-32.5 140.5t32.5 140t92.5 91.5t142 32.5q80 0 140 -32.5t92.5 -91.5t32.5 -140t-32.5 -140.5t-92.5 -91.5t-140 -32zM303 107q55 0 85 36.5t30 112.5q0 75 -30 111.5t-85 36.5q-56 0 -86.5 -36.5t-30.5 -111.5q0 -76 30 -112.5
t87 -36.5zM256 572l-154 206h149l98 -206h-93z" />
    <glyph glyph-name="oacute" unicode="&#xf3;" horiz-adv-x="604" 
d="M303 -8q-82 0 -142 32t-92.5 91.5t-32.5 140.5t32.5 140t92.5 91.5t142 32.5q80 0 140 -32.5t92.5 -91.5t32.5 -140t-32.5 -140.5t-92.5 -91.5t-140 -32zM303 107q55 0 85 36.5t30 112.5q0 75 -30 111.5t-85 36.5q-56 0 -86.5 -36.5t-30.5 -111.5q0 -76 30 -112.5
t87 -36.5zM349 572h-93l98 206h149z" />
    <glyph glyph-name="ocircumflex" unicode="&#xf4;" horiz-adv-x="604" 
d="M303 -8q-82 0 -142 32t-92.5 91.5t-32.5 140.5t32.5 140t92.5 91.5t142 32.5q80 0 140 -32.5t92.5 -91.5t32.5 -140t-32.5 -140.5t-92.5 -91.5t-140 -32zM303 107q55 0 85 36.5t30 112.5q0 75 -30 111.5t-85 36.5q-56 0 -86.5 -36.5t-30.5 -111.5q0 -76 30 -112.5
t87 -36.5zM244 572h-118l131 206h91l131 -206h-118l-58 117z" />
    <glyph glyph-name="otilde" unicode="&#xf5;" horiz-adv-x="604" 
d="M303 -8q-82 0 -142 32t-92.5 91.5t-32.5 140.5t32.5 140t92.5 91.5t142 32.5q80 0 140 -32.5t92.5 -91.5t32.5 -140t-32.5 -140.5t-92.5 -91.5t-140 -32zM303 107q55 0 85 36.5t30 112.5q0 75 -30 111.5t-85 36.5q-56 0 -86.5 -36.5t-30.5 -111.5q0 -76 30 -112.5
t87 -36.5zM127 604q0 76 32 111t77 35q26 0 49.5 -13t44.5 -26t40 -13q18 0 30 13t14 36h64q0 -76 -32 -111t-77 -35q-26 0 -49.5 13t-44.5 26t-40 13q-18 0 -30 -13t-14 -36h-64z" />
    <glyph glyph-name="odieresis" unicode="&#xf6;" horiz-adv-x="604" 
d="M303 -8q-82 0 -142 32t-92.5 91.5t-32.5 140.5t32.5 140t92.5 91.5t142 32.5q80 0 140 -32.5t92.5 -91.5t32.5 -140t-32.5 -140.5t-92.5 -91.5t-140 -32zM303 107q55 0 85 36.5t30 112.5q0 75 -30 111.5t-85 36.5q-56 0 -86.5 -36.5t-30.5 -111.5q0 -76 30 -112.5
t87 -36.5zM329 740h139v-133h-139v133zM137 740h139v-133h-139v133z" />
    <glyph glyph-name="divide" unicode="&#xf7;" horiz-adv-x="600" 
d="M234 421v120h120v-120h-120zM234 32v120h120v-120h-120zM546 341v-103h-492v103h492z" />
    <glyph glyph-name="oslash" unicode="&#xf8;" horiz-adv-x="604" 
d="M303 -8q-82 0 -142 32t-92.5 91.5t-32.5 140.5t32.5 140t92.5 91.5t142 32.5q80 0 140 -32.5t92.5 -91.5t32.5 -140t-32.5 -140.5t-92.5 -91.5t-140 -32zM164 -64l-71 42l347 596l72 -42zM303 106q57 0 87.5 36.5t30.5 113.5q0 76 -30.5 113t-87.5 37q-59 0 -89.5 -37
t-30.5 -113q0 -77 30.5 -113.5t89.5 -36.5z" />
    <glyph glyph-name="ugrave" unicode="&#xf9;" horiz-adv-x="606" 
d="M247 -8q-95 0 -142 53t-47 160v302h151v-305q0 -47 19.5 -69.5t60.5 -22.5q46 0 75 32t29 85v280h152v-507h-147v101l13 -1q-22 -53 -64.5 -80.5t-99.5 -27.5zM256 572l-154 206h149l98 -206h-93z" />
    <glyph glyph-name="uacute" unicode="&#xfa;" horiz-adv-x="606" 
d="M247 -8q-95 0 -142 53t-47 160v302h151v-305q0 -47 19.5 -69.5t60.5 -22.5q46 0 75 32t29 85v280h152v-507h-147v101l13 -1q-22 -53 -64.5 -80.5t-99.5 -27.5zM349 572h-93l98 206h149z" />
    <glyph glyph-name="ucircumflex" unicode="&#xfb;" horiz-adv-x="606" 
d="M247 -8q-95 0 -142 53t-47 160v302h151v-305q0 -47 19.5 -69.5t60.5 -22.5q46 0 75 32t29 85v280h152v-507h-147v101l13 -1q-22 -53 -64.5 -80.5t-99.5 -27.5zM244 572h-118l131 206h91l131 -206h-118l-58 117z" />
    <glyph glyph-name="udieresis" unicode="&#xfc;" horiz-adv-x="606" 
d="M247 -8q-95 0 -142 53t-47 160v302h151v-305q0 -47 19.5 -69.5t60.5 -22.5q46 0 75 32t29 85v280h152v-507h-147v101l13 -1q-22 -53 -64.5 -80.5t-99.5 -27.5zM329 740h139v-133h-139v133zM137 740h139v-133h-139v133z" />
    <glyph glyph-name="yacute" unicode="&#xfd;" horiz-adv-x="551" 
d="M58 -228l-35 116q47 9 77.5 22.5t50.5 33.5t33 49l39 87l40 59l149 368h149l-233 -533q-31 -70 -71 -111t-90 -62t-109 -29zM227 -38l-237 545h157l146 -368zM321 572h-93l98 206h149z" />
    <glyph glyph-name="thorn" unicode="&#xfe;" horiz-adv-x="632" 
d="M61 -216v952h151v-345l-12 18q16 51 62.5 81t108.5 30q66 0 116.5 -34t79.5 -94t29 -139t-29 -138t-79.5 -91t-116.5 -32q-62 0 -108.5 29t-62.5 81l12 19v-337h-151zM328 107q56 0 86 37.5t30 108.5t-30.5 111t-85.5 40q-57 0 -87 -38.5t-30 -110.5t30 -110t87 -38z" />
    <glyph glyph-name="ydieresis" unicode="&#xff;" horiz-adv-x="551" 
d="M58 -228l-35 116q47 9 77.5 22.5t50.5 33.5t33 49l39 87l40 59l149 368h149l-233 -533q-31 -70 -71 -111t-90 -62t-109 -29zM227 -38l-237 545h157l146 -368zM301 740h139v-133h-139v133zM109 740h139v-133h-139v133z" />
    <glyph glyph-name="Amacron" unicode="&#x100;" horiz-adv-x="759" 
d="M146 0h-157l327 712h126l327 -712h-155l-252 588h38zM137 158l60 119h356l59 -119h-475zM221 804v95h315v-95h-315z" />
    <glyph glyph-name="amacron" unicode="&#x101;" horiz-adv-x="630" 
d="M260 -8q-66 0 -117 32t-79 91t-28 138t28.5 139.5t79 94t116.5 33.5q61 0 108 -30t64 -81l-12 -8v106h149v-507h-149v104l12 -2q-17 -52 -64 -81t-108 -29zM304 107q55 0 85.5 38t30.5 110t-30.5 110.5t-85.5 38.5t-86.5 -40t-31.5 -111t30.5 -108.5t87.5 -37.5zM157 626
v95h315v-95h-315z" />
    <glyph glyph-name="Abreve" unicode="&#x102;" horiz-adv-x="759" 
d="M146 0h-157l327 712h126l327 -712h-155l-252 588h38zM137 158l60 119h356l59 -119h-475zM379 782q-64 0 -112 27.5t-68 82.5l70 30q18 -29 47 -39.5t63 -10.5q33 0 62 10.5t47 39.5l70 -30q-20 -55 -68 -82.5t-111 -27.5z" />
    <glyph glyph-name="abreve" unicode="&#x103;" horiz-adv-x="630" 
d="M260 -8q-66 0 -117 32t-79 91t-28 138t28.5 139.5t79 94t116.5 33.5q61 0 108 -30t64 -81l-12 -8v106h149v-507h-149v104l12 -2q-17 -52 -64 -81t-108 -29zM304 107q55 0 85.5 38t30.5 110t-30.5 110.5t-85.5 38.5t-86.5 -40t-31.5 -111t30.5 -108.5t87.5 -37.5zM315 594
q-41 0 -79.5 15.5t-67 48t-40.5 82.5l69 30q24 -44 54 -62t64 -18q33 0 63 18t54 62l69 -30q-12 -50 -40 -82.5t-66.5 -48t-79.5 -15.5z" />
    <glyph glyph-name="Aogonek" unicode="&#x104;" horiz-adv-x="759" 
d="M137 158l60 119h356l59 -119h-475zM758 -107l17 -71q-23 -10 -48.5 -15.5t-52.5 -5.5q-55 0 -92 30t-37 81q0 40 23.5 72.5t66.5 48.5l-21 -33l-252 588h38l-254 -588h-157l327 712h126l327 -712h-51q-34 0 -55 -19t-21 -47q0 -27 16 -40.5t44 -13.5q13 0 27 3.5t29 9.5z
" />
    <glyph glyph-name="aogonek" unicode="&#x105;" horiz-adv-x="630" 
d="M569 0h-9q-39 0 -63 -19t-24 -49q0 -28 16 -42t46 -14q27 0 57 14l17 -72q-23 -10 -49.5 -16t-53.5 -6q-57 0 -93.5 32.5t-36.5 83.5q0 42 26 75t74 51l-14 -38h-42v103l12 -1q-17 -52 -64 -81t-108 -29q-68 0 -118 32.5t-78 91t-28 137.5q0 78 28.5 138.5t78.5 94.5
t117 34q61 0 108 -30t64 -81l-12 -8v106h149v-507zM304 107q55 0 85.5 38t30.5 110t-30.5 110.5t-85.5 38.5t-86.5 -40t-31.5 -111t30.5 -108.5t87.5 -37.5z" />
    <glyph glyph-name="Cacute" unicode="&#x106;" horiz-adv-x="685" 
d="M405 -9q-109 0 -189 45t-123 127.5t-43 193.5q0 110 43 192t123 127t189 45q71 0 135 -21.5t106 -60.5l-49 -112q-48 36 -93.5 52.5t-95.5 16.5q-95 0 -147 -60.5t-52 -178.5t52 -179.5t147 -61.5q50 0 95.5 16.5t93.5 52.5l49 -112q-42 -39 -106 -60.5t-135 -21.5z
M444 773h-93l103 157h140z" />
    <glyph glyph-name="cacute" unicode="&#x107;" horiz-adv-x="509" 
d="M301 -8q-82 0 -142 32t-91.5 90.5t-31.5 138.5t34 140t95 93.5t143 33.5q54 0 106 -17t84 -46l-40 -105q-30 24 -66 37.5t-70 13.5q-61 0 -96 -37t-35 -110q0 -74 34.5 -111t96.5 -37q34 0 70 13t66 38l40 -105q-33 -29 -86 -45.5t-111 -16.5zM349 572h-93l98 206h149z
" />
    <glyph glyph-name="Ccircumflex" unicode="&#x108;" horiz-adv-x="685" 
d="M405 -9q-109 0 -189 45t-123 127.5t-43 193.5q0 110 43 192t123 127t189 45q71 0 135 -21.5t106 -60.5l-49 -112q-48 36 -93.5 52.5t-95.5 16.5q-95 0 -147 -60.5t-52 -178.5t52 -179.5t147 -61.5q50 0 95.5 16.5t93.5 52.5l49 -112q-42 -39 -106 -60.5t-135 -21.5z
M335 773h-114l134 157h85l134 -157h-114l-62 86z" />
    <glyph glyph-name="ccircumflex" unicode="&#x109;" horiz-adv-x="509" 
d="M301 -8q-82 0 -142 32t-91.5 90.5t-31.5 138.5t34 140t95 93.5t143 33.5q54 0 106 -17t84 -46l-40 -105q-30 24 -66 37.5t-70 13.5q-61 0 -96 -37t-35 -110q0 -74 34.5 -111t96.5 -37q34 0 70 13t66 38l40 -105q-33 -29 -86 -45.5t-111 -16.5zM244 572h-118l131 206h91
l131 -206h-118l-58 117z" />
    <glyph glyph-name="Cdotaccent" unicode="&#x10a;" horiz-adv-x="685" 
d="M405 -9q-109 0 -189 45t-123 127.5t-43 193.5q0 110 43 192t123 127t189 45q71 0 135 -21.5t106 -60.5l-49 -112q-48 36 -93.5 52.5t-95.5 16.5q-95 0 -147 -60.5t-52 -178.5t52 -179.5t147 -61.5q50 0 95.5 16.5t93.5 52.5l49 -112q-42 -39 -106 -60.5t-135 -21.5z
M316 923h163v-142h-163v142z" />
    <glyph glyph-name="cdotaccent" unicode="&#x10b;" horiz-adv-x="509" 
d="M301 -8q-82 0 -142 32t-91.5 90.5t-31.5 138.5t34 140t95 93.5t143 33.5q54 0 106 -17t84 -46l-40 -105q-30 24 -66 37.5t-70 13.5q-61 0 -96 -37t-35 -110q0 -74 34.5 -111t96.5 -37q34 0 70 13t66 38l40 -105q-33 -29 -86 -45.5t-111 -16.5zM221 745h163v-142h-163v142
z" />
    <glyph glyph-name="Ccaron" unicode="&#x10c;" horiz-adv-x="685" 
d="M405 -9q-109 0 -189 45t-123 127.5t-43 193.5q0 110 43 192t123 127t189 45q71 0 135 -21.5t106 -60.5l-49 -112q-48 36 -93.5 52.5t-95.5 16.5q-95 0 -147 -60.5t-52 -178.5t52 -179.5t147 -61.5q50 0 95.5 16.5t93.5 52.5l49 -112q-42 -39 -106 -60.5t-135 -21.5z
M460 930h114l-134 -157h-85l-134 157h114l63 -87z" />
    <glyph glyph-name="ccaron" unicode="&#x10d;" horiz-adv-x="509" 
d="M301 -8q-82 0 -142 32t-91.5 90.5t-31.5 138.5t34 140t95 93.5t143 33.5q54 0 106 -17t84 -46l-40 -105q-30 24 -66 37.5t-70 13.5q-61 0 -96 -37t-35 -110q0 -74 34.5 -111t96.5 -37q34 0 70 13t66 38l40 -105q-33 -29 -86 -45.5t-111 -16.5zM361 778h118l-131 -206h-91
l-131 206h118l59 -118z" />
    <glyph glyph-name="Dcaron" unicode="&#x10e;" horiz-adv-x="771" 
d="M71 0v712h276q117 0 200.5 -42t128 -121.5t44.5 -191.5q0 -113 -44 -192.5t-127.5 -122t-201.5 -42.5h-276zM227 126h109q114 0 171 57.5t57 173.5q0 229 -228 229h-109v-460zM447 930h114l-134 -157h-85l-134 157h114l63 -87z" />
    <glyph glyph-name="dcaron" unicode="&#x10f;" horiz-adv-x="630" 
d="M649 536h-52v200h79zM569 0h-149v124l12 -22q-17 -52 -64 -81t-108 -29q-66 0 -116.5 33.5t-79 93t-28.5 139.5q0 79 28 138t79 91.5t117 32.5q61 0 108 -30.5t64 -80.5l-14 -18v345h151v-736zM304 107q55 0 85.5 38t30.5 111q0 70 -30.5 109t-85.5 39q-57 0 -87.5 -38
t-30.5 -108q0 -73 31.5 -112t86.5 -39z" />
    <glyph glyph-name="Dcroat" unicode="&#x110;" horiz-adv-x="801" 
d="M14 301v118h431v-118h-431zM101 0v712h276q117 0 200.5 -42t128 -121.5t44.5 -191.5q0 -113 -44 -192.5t-127.5 -122t-201.5 -42.5h-276zM258 126h108q114 0 170.5 57.5t56.5 173.5q0 229 -227 229h-108v-460z" />
    <glyph glyph-name="dcroat" unicode="&#x111;" horiz-adv-x="630" 
d="M226 560v105h432v-105h-432zM569 0h-149v124l12 -22q-17 -52 -64 -81t-108 -29q-66 0 -116.5 33.5t-79 93t-28.5 139.5q0 79 28 138t79 91.5t117 32.5q61 0 108 -30.5t64 -80.5l-14 -18v345h151v-736zM304 107q55 0 85.5 38t30.5 111q0 70 -30.5 109t-85.5 39
q-57 0 -87.5 -38t-30.5 -108q0 -73 31.5 -112t86.5 -39z" />
    <glyph glyph-name="Emacron" unicode="&#x112;" horiz-adv-x="599" 
d="M71 0v712h491v-121h-338v-168h317v-122h-317v-180h338v-121h-491zM175 804v95h315v-95h-315z" />
    <glyph glyph-name="emacron" unicode="&#x113;" horiz-adv-x="550" 
d="M507 54q-37 -29 -90 -45.5t-107 -16.5q-85 0 -146.5 32t-94.5 91t-33 140q0 78 32 138t87.5 93.5t129.5 33.5q71 0 123 -31.5t80 -89t28 -136.5v-22h-347l2 75h255l-39 -31q1 64 -24.5 96.5t-73.5 32.5q-52 0 -80.5 -37.5t-28.5 -109.5q0 -85 33.5 -123t102.5 -38
q40 0 79 13t72 37zM127 626v95h315v-95h-315z" />
    <glyph glyph-name="Ebreve" unicode="&#x114;" horiz-adv-x="599" 
d="M71 0v712h491v-121h-338v-168h317v-122h-317v-180h338v-121h-491zM333 782q-64 0 -112 27.5t-68 82.5l70 30q18 -29 47 -39.5t63 -10.5q33 0 62 10.5t47 39.5l70 -30q-20 -55 -68 -82.5t-111 -27.5z" />
    <glyph glyph-name="ebreve" unicode="&#x115;" horiz-adv-x="550" 
d="M507 54q-37 -29 -90 -45.5t-107 -16.5q-85 0 -146.5 32t-94.5 91t-33 140q0 78 32 138t87.5 93.5t129.5 33.5q71 0 123 -31.5t80 -89t28 -136.5v-22h-347l2 75h255l-39 -31q1 64 -24.5 96.5t-73.5 32.5q-52 0 -80.5 -37.5t-28.5 -109.5q0 -85 33.5 -123t102.5 -38
q40 0 79 13t72 37zM285 594q-41 0 -79.5 15.5t-67 48t-40.5 82.5l69 30q24 -44 54 -62t64 -18q33 0 63 18t54 62l69 -30q-12 -50 -40 -82.5t-66.5 -48t-79.5 -15.5z" />
    <glyph glyph-name="Edotaccent" unicode="&#x116;" horiz-adv-x="599" 
d="M71 0v712h491v-121h-338v-168h317v-122h-317v-180h338v-121h-491zM251 923h163v-142h-163v142z" />
    <glyph glyph-name="edotaccent" unicode="&#x117;" horiz-adv-x="550" 
d="M507 54q-37 -29 -90 -45.5t-107 -16.5q-85 0 -146.5 32t-94.5 91t-33 140q0 78 32 138t87.5 93.5t129.5 33.5q71 0 123 -31.5t80 -89t28 -136.5v-22h-347l2 75h255l-39 -31q1 64 -24.5 96.5t-73.5 32.5q-52 0 -80.5 -37.5t-28.5 -109.5q0 -85 33.5 -123t102.5 -38
q40 0 79 13t72 37zM203 745h163v-142h-163v142z" />
    <glyph glyph-name="Eogonek" unicode="&#x118;" horiz-adv-x="599" 
d="M584 -107l17 -71q-23 -10 -48.5 -15.5t-52.5 -5.5q-57 0 -92.5 31.5t-35.5 79.5q0 71 66 108l19 -20h-386v712h491v-121h-338v-168h317v-122h-317v-180h338v-121h-22q-33 0 -52 -18t-19 -48q0 -27 15.5 -40.5t43.5 -13.5q13 0 27 3.5t29 9.5z" />
    <glyph glyph-name="eogonek" unicode="&#x119;" horiz-adv-x="550" 
d="M404 -204q-59 0 -95 32t-36 82q0 32 16 59t47 44l28 -16q-16 -2 -28.5 -3.5t-25.5 -1.5q-85 0 -146.5 32t-94.5 91t-33 140q0 78 32 138t87.5 93.5t129.5 33.5q71 0 123 -31.5t80 -89t28 -136.5v-22h-347l2 75h255l-39 -31q1 64 -24.5 96.5t-73.5 32.5q-52 0 -80.5 -39
t-28.5 -108q0 -85 33.5 -123t102.5 -38q40 0 79 13t72 37l40 -101q-8 -8 -19.5 -14.5t-39.5 -19.5q-42 -21 -59.5 -41.5t-17.5 -47.5q0 -28 16 -42t46 -14q27 0 56 14l16 -72q-22 -10 -47.5 -16t-53.5 -6z" />
    <glyph glyph-name="Ecaron" unicode="&#x11a;" horiz-adv-x="599" 
d="M71 0v712h491v-121h-338v-168h317v-122h-317v-180h338v-121h-491zM395 930h114l-134 -157h-85l-134 157h114l63 -87z" />
    <glyph glyph-name="ecaron" unicode="&#x11b;" horiz-adv-x="550" 
d="M507 54q-37 -29 -90 -45.5t-107 -16.5q-85 0 -146.5 32t-94.5 91t-33 140q0 78 32 138t87.5 93.5t129.5 33.5q71 0 123 -31.5t80 -89t28 -136.5v-22h-347l2 75h255l-39 -31q1 64 -24.5 96.5t-73.5 32.5q-52 0 -80.5 -37.5t-28.5 -109.5q0 -85 33.5 -123t102.5 -38
q40 0 79 13t72 37zM343 778h118l-131 -206h-91l-131 206h118l59 -118z" />
    <glyph glyph-name="Gcircumflex" unicode="&#x11c;" horiz-adv-x="745" 
d="M418 -9q-114 0 -196.5 44t-127 126t-44.5 196q0 112 44.5 194t125.5 126t191 44q76 0 143 -21t110 -59l-50 -112q-51 36 -97.5 52t-101.5 16q-103 0 -154.5 -60t-51.5 -180q0 -123 53.5 -184.5t162.5 -61.5q38 0 76.5 6.5t74.5 19.5l-34 -51v198h-140v109h281v-349
q-35 -17 -78.5 -29t-91 -18t-95.5 -6zM348 773h-114l134 157h85l134 -157h-114l-62 86z" />
    <glyph glyph-name="gcircumflex" unicode="&#x11d;" horiz-adv-x="634" 
d="M300 -224q-120 0 -210 47l23 112q45 -23 91 -34t91 -11q65 0 97 30t32 92v117l12 -6q-12 -28 -37 -53t-60.5 -40.5t-76.5 -15.5q-66 0 -117 31.5t-80 88.5t-29 133t29 132.5t80 88.5t117 32q62 0 109.5 -30.5t64.5 -80.5l-12 -9v107h150v-483q0 -122 -69.5 -185
t-204.5 -63zM306 129q55 0 86.5 36.5t31.5 101.5q0 63 -31 100t-87 37t-88 -36.5t-32 -100.5t32.5 -101t87.5 -37zM259 572h-118l131 206h91l131 -206h-118l-58 117z" />
    <glyph glyph-name="Gbreve" unicode="&#x11e;" horiz-adv-x="745" 
d="M418 -9q-114 0 -196.5 44t-127 126t-44.5 196q0 112 44.5 194t125.5 126t191 44q76 0 143 -21t110 -59l-50 -112q-51 36 -97.5 52t-101.5 16q-103 0 -154.5 -60t-51.5 -180q0 -123 53.5 -184.5t162.5 -61.5q38 0 76.5 6.5t74.5 19.5l-34 -51v198h-140v109h281v-349
q-35 -17 -78.5 -29t-91 -18t-95.5 -6zM411 782q-64 0 -112 27.5t-68 82.5l70 30q18 -29 47 -39.5t63 -10.5q33 0 62 10.5t47 39.5l70 -30q-20 -55 -68 -82.5t-111 -27.5z" />
    <glyph glyph-name="gbreve" unicode="&#x11f;" horiz-adv-x="634" 
d="M300 -224q-120 0 -210 47l23 112q45 -23 91 -34t91 -11q65 0 97 30t32 92v117l12 -6q-12 -28 -37 -53t-60.5 -40.5t-76.5 -15.5q-66 0 -117 31.5t-80 88.5t-29 133t29 132.5t80 88.5t117 32q62 0 109.5 -30.5t64.5 -80.5l-12 -9v107h150v-483q0 -122 -69.5 -185
t-204.5 -63zM306 129q55 0 86.5 36.5t31.5 101.5q0 63 -31 100t-87 37t-88 -36.5t-32 -100.5t32.5 -101t87.5 -37zM318 594q-41 0 -79.5 15.5t-67 48t-40.5 82.5l69 30q24 -44 54 -62t64 -18q33 0 63 18t54 62l69 -30q-12 -50 -40 -82.5t-66.5 -48t-79.5 -15.5z" />
    <glyph glyph-name="Gdotaccent" unicode="&#x120;" horiz-adv-x="745" 
d="M418 -9q-114 0 -196.5 44t-127 126t-44.5 196q0 112 44.5 194t125.5 126t191 44q76 0 143 -21t110 -59l-50 -112q-51 36 -97.5 52t-101.5 16q-103 0 -154.5 -60t-51.5 -180q0 -123 53.5 -184.5t162.5 -61.5q38 0 76.5 6.5t74.5 19.5l-34 -51v198h-140v109h281v-349
q-35 -17 -78.5 -29t-91 -18t-95.5 -6zM329 923h163v-142h-163v142z" />
    <glyph glyph-name="gdotaccent" unicode="&#x121;" horiz-adv-x="634" 
d="M300 -224q-120 0 -210 47l23 112q45 -23 91 -34t91 -11q65 0 97 30t32 92v117l12 -6q-12 -28 -37 -53t-60.5 -40.5t-76.5 -15.5q-66 0 -117 31.5t-80 88.5t-29 133t29 132.5t80 88.5t117 32q62 0 109.5 -30.5t64.5 -80.5l-12 -9v107h150v-483q0 -122 -69.5 -185
t-204.5 -63zM306 129q55 0 86.5 36.5t31.5 101.5q0 63 -31 100t-87 37t-88 -36.5t-32 -100.5t32.5 -101t87.5 -37zM236 745h163v-142h-163v142z" />
    <glyph glyph-name="uni0122" unicode="&#x122;" horiz-adv-x="745" 
d="M418 -9q-114 0 -196.5 44t-127 126t-44.5 196q0 112 44.5 194t125.5 126t191 44q76 0 143 -21t110 -59l-50 -112q-51 36 -97.5 52t-101.5 16q-103 0 -154.5 -60t-51.5 -180q0 -123 53.5 -184.5t162.5 -61.5q38 0 76.5 6.5t74.5 19.5l-34 -51v198h-140v109h281v-349
q-35 -17 -78.5 -29t-91 -18t-95.5 -6zM492 -67v-64q0 -44 -13 -79.5t-47 -66.5l-55 37q22 20 29.5 40t7.5 43l33 -24h-105v114h150z" />
    <glyph glyph-name="uni0123" unicode="&#x123;" horiz-adv-x="634" 
d="M300 -224q-120 0 -210 47l23 112q45 -23 91 -34t91 -11q65 0 97 30t32 92v117l12 -6q-12 -28 -37 -53t-60.5 -40.5t-76.5 -15.5q-66 0 -117 31.5t-80 88.5t-29 133t29 132.5t80 88.5t117 32q62 0 109.5 -30.5t64.5 -80.5l-12 -9v107h150v-483q0 -122 -69.5 -185
t-204.5 -63zM306 129q55 0 86.5 36.5t31.5 101.5q0 63 -31 100t-87 37t-88 -36.5t-32 -100.5t32.5 -101t87.5 -37zM242 601v64q0 45 12.5 81t47.5 66l55 -37q-22 -21 -29.5 -41.5t-7.5 -42.5l-33 24h105v-114h-150z" />
    <glyph glyph-name="Hcircumflex" unicode="&#x124;" horiz-adv-x="779" 
d="M554 0v712h153v-712h-153zM71 0v712h153v-712h-153zM121 300v123h525v-123h-525zM326 773h-114l134 157h85l134 -157h-114l-62 86z" />
    <glyph glyph-name="hcircumflex" unicode="&#x125;" horiz-adv-x="612" 
d="M61 0v736h151v-332l-17 5q26 54 72.5 82.5t107.5 28.5q179 0 179 -213v-307h-151v300q0 54 -19.5 78t-61.5 24q-50 0 -80 -32t-30 -86v-284h-151zM77 797h-114l134 157h85l134 -157h-114l-62 86z" />
    <glyph glyph-name="Hbar" unicode="&#x126;" horiz-adv-x="839" 
d="M14 513v115h810v-115h-810zM584 0v712h154v-712h-154zM101 0v712h154v-712h-154zM152 300v123h523v-123h-523z" />
    <glyph glyph-name="hbar" unicode="&#x127;" horiz-adv-x="612" 
d="M61 0v736h151v-332l-17 5q26 54 72.5 82.5t107.5 28.5q179 0 179 -213v-307h-151v300q0 54 -19.5 78t-61.5 24q-50 0 -80 -32t-30 -86v-284h-151zM-27 560v105h432v-105h-432z" />
    <glyph glyph-name="Itilde" unicode="&#x128;" horiz-adv-x="299" 
d="M71 0v712h156v-712h-156zM-27 780q0 76 32 111.5t77 35.5q26 0 49.5 -13t44.5 -26.5t40 -13.5q18 0 30 13t14 37h64q0 -77 -32 -112t-77 -35q-26 0 -49.5 13t-44.5 26t-40 13q-18 0 -30 -13t-14 -36h-64z" />
    <glyph glyph-name="itilde" unicode="&#x129;" horiz-adv-x="274" 
d="M61 0v507h151v-507h-151zM-39 604q0 76 32 111t77 35q26 0 49.5 -13t44.5 -26t40 -13q18 0 30 13t14 36h64q0 -76 -32 -111t-77 -35q-26 0 -49.5 13t-44.5 26t-40 13q-18 0 -30 -13t-14 -36h-64z" />
    <glyph glyph-name="Imacron" unicode="&#x12a;" horiz-adv-x="299" 
d="M71 0v712h156v-712h-156zM-9 804v95h315v-95h-315z" />
    <glyph glyph-name="imacron" unicode="&#x12b;" horiz-adv-x="274" 
d="M61 0v507h151v-507h-151zM-21 626v95h315v-95h-315z" />
    <glyph glyph-name="Ibreve" unicode="&#x12c;" horiz-adv-x="299" 
d="M71 0v712h156v-712h-156zM149 782q-64 0 -112 27.5t-68 82.5l70 30q18 -29 47 -39.5t63 -10.5q33 0 62 10.5t47 39.5l70 -30q-20 -55 -68 -82.5t-111 -27.5z" />
    <glyph glyph-name="ibreve" unicode="&#x12d;" horiz-adv-x="274" 
d="M61 0v507h151v-507h-151zM137 594q-41 0 -79.5 15.5t-67 48t-40.5 82.5l69 30q24 -44 54 -62t64 -18q33 0 63 18t54 62l69 -30q-12 -50 -40 -82.5t-66.5 -48t-79.5 -15.5z" />
    <glyph glyph-name="Iogonek" unicode="&#x12e;" horiz-adv-x="299" 
d="M160 -199q-54 0 -91.5 30t-37.5 83q0 38 24 71t73 52l-13 -37h-44v712h156v-712h-14q-39 0 -62 -19t-23 -47q0 -27 16 -40.5t45 -13.5q12 0 26 3.5t29 9.5l17 -71q-23 -10 -48.5 -15.5t-52.5 -5.5z" />
    <glyph glyph-name="iogonek" unicode="&#x12f;" horiz-adv-x="274" 
d="M149 -204q-55 0 -92.5 31.5t-37.5 84.5q0 39 24.5 73t75.5 53l-14 -38h-44v507h151v-507h-9q-40 0 -63.5 -19.5t-23.5 -48.5q0 -27 16.5 -41.5t45.5 -14.5q12 0 26.5 3.5t29.5 10.5l18 -72q-23 -10 -49 -16t-54 -6zM56 749h162v-143h-162v143z" />
    <glyph glyph-name="Idotaccent" unicode="&#x130;" horiz-adv-x="299" 
d="M71 0v712h156v-712h-156zM67 923h163v-142h-163v142z" />
    <glyph glyph-name="dotlessi" unicode="&#x131;" horiz-adv-x="274" 
d="M61 0v507h151v-507h-151z" />
    <glyph glyph-name="Jcircumflex" unicode="&#x134;" horiz-adv-x="381" 
d="M0 -179v127q63 -9 95.5 -5t45 26.5t12.5 70.5v672h156v-670q0 -92 -28 -147t-96 -73.5t-185 -0.5zM167 773h-114l134 157h85l134 -157h-114l-62 86z" />
    <glyph glyph-name="jcircumflex" unicode="&#x135;" horiz-adv-x="274" 
d="M-65 -93q15 -4 26 -5.5t23 -1.5q21 0 39 8t28 26t10 48v525h151v-529q0 -95 -48.5 -148.5t-142.5 -53.5q-22 0 -44 3t-42 10v118zM77 572h-118l131 206h91l131 -206h-118l-58 117z" />
    <glyph glyph-name="uni0136" unicode="&#x136;" horiz-adv-x="684" 
d="M537 0l-343 364l332 348h186l-376 -387l11 83l378 -408h-188zM71 0v712h156v-712h-156zM418 -67v-64q0 -44 -13 -79.5t-47 -66.5l-55 37q22 20 29.5 40t7.5 43l33 -24h-105v114h150z" />
    <glyph glyph-name="uni0137" unicode="&#x137;" horiz-adv-x="573" 
d="M411 0l-225 258l216 248h181l-249 -281l7 69l255 -294h-185zM61 0v736h151v-736h-151zM360 -67v-64q0 -44 -13 -79.5t-47 -66.5l-55 37q22 20 29.5 40t7.5 43l33 -24h-105v114h150z" />
    <glyph glyph-name="kgreenlandic" unicode="&#x138;" horiz-adv-x="573" 
d="M411 0l-225 258l216 248h181l-249 -281l7 69l255 -294h-185zM61 0v507h151v-507h-151z" />
    <glyph glyph-name="Lacute" unicode="&#x139;" horiz-adv-x="569" 
d="M71 0v712h156v-585h318v-127h-474zM195 773h-93l103 157h140z" />
    <glyph glyph-name="lacute" unicode="&#x13a;" horiz-adv-x="274" 
d="M61 0v736h151v-736h-151zM183 797h-93l103 157h140z" />
    <glyph glyph-name="uni013B" unicode="&#x13b;" horiz-adv-x="569" 
d="M71 0v712h156v-585h318v-127h-474zM390 -67v-64q0 -44 -13 -79.5t-47 -66.5l-55 37q22 20 29.5 40t7.5 43l33 -24h-105v114h150z" />
    <glyph glyph-name="uni013C" unicode="&#x13c;" horiz-adv-x="274" 
d="M61 0v736h151v-736h-151zM211 -67v-64q0 -44 -13 -79.5t-47 -66.5l-55 37q22 20 29.5 40t7.5 43l33 -24h-105v114h150z" />
    <glyph glyph-name="Lcaron" unicode="&#x13d;" horiz-adv-x="569" 
d="M71 0v712h156v-585h318v-127h-474zM386 516h-70v196h96z" />
    <glyph glyph-name="lcaron" unicode="&#x13e;" horiz-adv-x="274" 
d="M293 536h-53v200h79zM61 0v736h151v-736h-151z" />
    <glyph glyph-name="Ldot" unicode="&#x13f;" horiz-adv-x="569" 
d="M71 0v712h156v-585h318v-127h-474zM313 427h161v-141h-161v141z" />
    <glyph glyph-name="ldot" unicode="&#x140;" horiz-adv-x="379" 
d="M61 0v736h151v-736h-151zM242 428h161v-141h-161v141z" />
    <glyph glyph-name="Lslash" unicode="&#x141;" horiz-adv-x="600" 
d="M10 195v133l432 250v-134zM101 0v712h157v-585h318v-127h-475z" />
    <glyph glyph-name="lslash" unicode="&#x142;" horiz-adv-x="358" 
d="M40 219l-56 101l334 194l57 -103zM103 0v736h151v-736h-151z" />
    <glyph glyph-name="Nacute" unicode="&#x143;" horiz-adv-x="760" 
d="M71 0v712h115l384 -490l-29 -19v509h147v-712h-116l-382 488l27 21v-509h-146zM425 773h-93l103 157h140z" />
    <glyph glyph-name="nacute" unicode="&#x144;" horiz-adv-x="612" 
d="M61 0v362q0 36 -1.5 72.5t-6.5 72.5h142l11 -99l-11 1q26 54 72.5 82.5t107.5 28.5q179 0 179 -213v-307h-151v300q0 54 -19.5 78t-61.5 24q-50 0 -80 -32t-30 -86v-284h-151zM354 572h-93l98 206h149z" />
    <glyph glyph-name="uni0145" unicode="&#x145;" horiz-adv-x="760" 
d="M71 0v712h115l384 -490l-29 -19v509h147v-712h-116l-382 488l27 21v-509h-146zM454 -67v-64q0 -44 -13 -79.5t-47 -66.5l-55 37q22 20 29.5 40t7.5 43l33 -24h-105v114h150z" />
    <glyph glyph-name="uni0146" unicode="&#x146;" horiz-adv-x="612" 
d="M61 0v362q0 36 -1.5 72.5t-6.5 72.5h142l11 -99l-11 1q26 54 72.5 82.5t107.5 28.5q179 0 179 -213v-307h-151v300q0 54 -19.5 78t-61.5 24q-50 0 -80 -32t-30 -86v-284h-151zM382 -67v-64q0 -44 -13 -79.5t-47 -66.5l-55 37q22 20 29.5 40t7.5 43l33 -24h-105v114h150z
" />
    <glyph glyph-name="Ncaron" unicode="&#x147;" horiz-adv-x="760" 
d="M71 0v712h115l384 -490l-29 -19v509h147v-712h-116l-382 488l27 21v-509h-146zM441 930h114l-134 -157h-85l-134 157h114l63 -87z" />
    <glyph glyph-name="ncaron" unicode="&#x148;" horiz-adv-x="612" 
d="M61 0v362q0 36 -1.5 72.5t-6.5 72.5h142l11 -99l-11 1q26 54 72.5 82.5t107.5 28.5q179 0 179 -213v-307h-151v300q0 54 -19.5 78t-61.5 24q-50 0 -80 -32t-30 -86v-284h-151zM366 778h118l-131 -206h-91l-131 206h118l59 -118z" />
    <glyph glyph-name="napostrophe" unicode="&#x149;" horiz-adv-x="612" 
d="M224 767v-65q0 -45 -12.5 -80t-47.5 -67l-55 39q22 19 29.5 39.5t7.5 43.5l33 -25h-105v115h150zM61 0v362q0 36 -1.5 72.5t-6.5 72.5h142l11 -99l-11 1q26 54 72.5 82.5t107.5 28.5q179 0 179 -213v-307h-151v300q0 54 -19.5 78t-61.5 24q-50 0 -80 -32t-30 -86v-284
h-151z" />
    <glyph glyph-name="Eng" unicode="&#x14a;" horiz-adv-x="760" 
d="M541 712h147v-684q0 -100 -53 -153.5t-158 -59.5l-92 -5l-10 118l75 5q44 2 67 26t23 63v67l27 -82l-377 481l27 21v-509h-146v712h115l384 -490l-29 -19v509z" />
    <glyph glyph-name="eng" unicode="&#x14b;" horiz-adv-x="612" 
d="M375 520q179 0 179 -213v-308q0 -74 -21.5 -123.5t-63.5 -74.5t-105 -25q-24 0 -45.5 2.5t-42.5 7.5v121q15 -4 26.5 -5.5t22.5 -1.5q22 0 39.5 8.5t28 31t10.5 63.5v297q0 54 -19.5 78t-61.5 24q-50 0 -80 -32t-30 -86v-284h-151v362q0 36 -1.5 72.5t-6.5 72.5h142
l11 -99l-11 1q26 54 72.5 82.5t107.5 28.5z" />
    <glyph glyph-name="Omacron" unicode="&#x14c;" horiz-adv-x="795" 
d="M398 -9q-107 0 -185 45t-120.5 127t-42.5 194q0 111 42.5 193t120.5 126.5t185 44.5t184.5 -44.5t119.5 -126.5t42 -193q0 -112 -42 -194t-119.5 -127t-184.5 -45zM398 112q88 0 139.5 62.5t51.5 182.5t-51.5 181.5t-139.5 61.5q-89 0 -140 -61.5t-51 -181.5
q0 -121 51 -183t140 -62zM239 804v95h315v-95h-315z" />
    <glyph glyph-name="omacron" unicode="&#x14d;" horiz-adv-x="604" 
d="M303 -8q-82 0 -142 32t-92.5 91.5t-32.5 140.5t32.5 140t92.5 91.5t142 32.5q80 0 140 -32.5t92.5 -91.5t32.5 -140t-32.5 -140.5t-92.5 -91.5t-140 -32zM303 107q55 0 85 36.5t30 112.5q0 75 -30 111.5t-85 36.5q-56 0 -86.5 -36.5t-30.5 -111.5q0 -76 30 -112.5
t87 -36.5zM145 626v95h315v-95h-315z" />
    <glyph glyph-name="Obreve" unicode="&#x14e;" horiz-adv-x="795" 
d="M398 -9q-107 0 -185 45t-120.5 127t-42.5 194q0 111 42.5 193t120.5 126.5t185 44.5t184.5 -44.5t119.5 -126.5t42 -193q0 -112 -42 -194t-119.5 -127t-184.5 -45zM398 112q88 0 139.5 62.5t51.5 182.5t-51.5 181.5t-139.5 61.5q-89 0 -140 -61.5t-51 -181.5
q0 -121 51 -183t140 -62zM397 782q-64 0 -112 27.5t-68 82.5l70 30q18 -29 47 -39.5t63 -10.5q33 0 62 10.5t47 39.5l70 -30q-20 -55 -68 -82.5t-111 -27.5z" />
    <glyph glyph-name="obreve" unicode="&#x14f;" horiz-adv-x="604" 
d="M303 -8q-82 0 -142 32t-92.5 91.5t-32.5 140.5t32.5 140t92.5 91.5t142 32.5q80 0 140 -32.5t92.5 -91.5t32.5 -140t-32.5 -140.5t-92.5 -91.5t-140 -32zM303 107q55 0 85 36.5t30 112.5q0 75 -30 111.5t-85 36.5q-56 0 -86.5 -36.5t-30.5 -111.5q0 -76 30 -112.5
t87 -36.5zM303 594q-41 0 -79.5 15.5t-67 48t-40.5 82.5l69 30q24 -44 54 -62t64 -18q33 0 63 18t54 62l69 -30q-12 -50 -40 -82.5t-66.5 -48t-79.5 -15.5z" />
    <glyph glyph-name="Ohungarumlaut" unicode="&#x150;" horiz-adv-x="795" 
d="M398 -9q-107 0 -185 45t-120.5 127t-42.5 194q0 111 42.5 193t120.5 126.5t185 44.5t184.5 -44.5t119.5 -126.5t42 -193q0 -112 -42 -194t-119.5 -127t-184.5 -45zM398 112q88 0 139.5 62.5t51.5 182.5t-51.5 181.5t-139.5 61.5q-89 0 -140 -61.5t-51 -181.5
q0 -121 51 -183t140 -62zM429 773l74 157h101l-100 -157h-75zM289 773l74 157h102l-101 -157h-75z" />
    <glyph glyph-name="ohungarumlaut" unicode="&#x151;" horiz-adv-x="604" 
d="M303 -8q-82 0 -142 32t-92.5 91.5t-32.5 140.5t32.5 140t92.5 91.5t142 32.5q80 0 140 -32.5t92.5 -91.5t32.5 -140t-32.5 -140.5t-92.5 -91.5t-140 -32zM303 107q55 0 85 36.5t30 112.5q0 75 -30 111.5t-85 36.5q-56 0 -86.5 -36.5t-30.5 -111.5q0 -76 30 -112.5
t87 -36.5zM265 572h-65l35 206h109zM405 572h-65l34 206h110z" />
    <glyph glyph-name="OE" unicode="&#x152;" horiz-adv-x="1054" 
d="M536 0v76l-9 34v504l9 19v79h481v-121h-338v-168h318v-122h-318v-180h338v-121h-481zM560 531q-23 33 -64.5 51t-97.5 18q-92 0 -141.5 -63.5t-49.5 -179.5q0 -118 50 -181.5t141 -63.5q114 0 162 70v-121q-55 -70 -181 -70q-97 0 -171 46.5t-116 129t-42 190.5
q0 107 42 189t116 128.5t171 46.5q125 0 181 -67v-123z" />
    <glyph glyph-name="oe" unicode="&#x153;" horiz-adv-x="929" 
d="M299 -8q-80 0 -139 32.5t-91.5 91.5t-32.5 140t32.5 140t91.5 91.5t139 32.5q75 0 130.5 -32t85 -91t29.5 -141t-29.5 -141.5t-85 -91t-130.5 -31.5zM300 107q55 0 84.5 36.5t29.5 112.5q0 75 -29.5 111.5t-83.5 36.5q-55 0 -85 -36.5t-30 -111.5q0 -76 30 -112.5
t84 -36.5zM689 -8q-117 0 -182.5 68.5t-65.5 194.5q-1 80 28.5 139.5t82.5 92.5t124 33q65 0 114 -32.5t76.5 -90t27.5 -134.5v-38h-341l1 76h250l-37 -16q-1 62 -25 95.5t-69 33.5q-52 0 -80 -37t-28 -107q0 -87 30 -125.5t95 -38.5q42 0 81.5 12.5t72.5 37.5l42 -102
q-37 -29 -90 -45.5t-107 -16.5z" />
    <glyph glyph-name="Racute" unicode="&#x154;" horiz-adv-x="708" 
d="M71 0v712h317q125 0 189 -54.5t64 -154.5q0 -95 -66 -152.5t-184 -57.5l82 17q37 0 66.5 -22t46.5 -67l86 -221h-165l-91 237q-11 29 -35 39.5t-55 10.5h-101v-287h-154zM224 406h141q67 0 98 23t31 70q0 48 -30.5 70.5t-98.5 22.5h-141v-186zM402 773h-93l103 157h140z
" />
    <glyph glyph-name="racute" unicode="&#x155;" horiz-adv-x="410" 
d="M61 0v362q0 36 -1.5 72.5t-6.5 72.5h142l16 -134l-16 8q12 68 57.5 103t103.5 35q17 0 30.5 -3t23.5 -7l-1 -138q-37 17 -74 17q-41 0 -67.5 -15t-41 -42.5t-14.5 -65.5v-265h-151zM287 572h-93l98 206h149z" />
    <glyph glyph-name="uni0156" unicode="&#x156;" horiz-adv-x="708" 
d="M71 0v712h317q125 0 189 -54.5t64 -154.5q0 -95 -66 -152.5t-184 -57.5l82 17q37 0 66.5 -22t46.5 -67l86 -221h-165l-91 237q-11 29 -35 39.5t-55 10.5h-101v-287h-154zM224 406h141q67 0 98 23t31 70q0 48 -30.5 70.5t-98.5 22.5h-141v-186zM431 -67v-64
q0 -44 -13 -79.5t-47 -66.5l-55 37q22 20 29.5 40t7.5 43l33 -24h-105v114h150z" />
    <glyph glyph-name="uni0157" unicode="&#x157;" horiz-adv-x="410" 
d="M61 0v362q0 36 -1.5 72.5t-6.5 72.5h142l16 -134l-16 8q12 68 57.5 103t103.5 35q17 0 30.5 -3t23.5 -7l-1 -138q-37 17 -74 17q-41 0 -67.5 -15t-41 -42.5t-14.5 -65.5v-265h-151zM211 -67v-64q0 -44 -13 -79.5t-47 -66.5l-55 37q22 20 29.5 40t7.5 43l33 -24h-105v114
h150z" />
    <glyph glyph-name="Rcaron" unicode="&#x158;" horiz-adv-x="708" 
d="M71 0v712h317q125 0 189 -54.5t64 -154.5q0 -95 -66 -152.5t-184 -57.5l82 17q37 0 66.5 -22t46.5 -67l86 -221h-165l-91 237q-11 29 -35 39.5t-55 10.5h-101v-287h-154zM224 406h141q67 0 98 23t31 70q0 48 -30.5 70.5t-98.5 22.5h-141v-186zM418 930h114l-134 -157h-85
l-134 157h114l63 -87z" />
    <glyph glyph-name="rcaron" unicode="&#x159;" horiz-adv-x="410" 
d="M61 0v362q0 36 -1.5 72.5t-6.5 72.5h142l16 -134l-16 8q12 68 57.5 103t103.5 35q17 0 30.5 -3t23.5 -7l-1 -138q-37 17 -74 17q-41 0 -67.5 -15t-41 -42.5t-14.5 -65.5v-265h-151zM299 778h118l-131 -206h-91l-131 206h118l59 -118z" />
    <glyph glyph-name="Sacute" unicode="&#x15a;" horiz-adv-x="657" 
d="M320 -9q-54 0 -105.5 9.5t-96.5 28t-78 44.5l51 112q53 -37 110 -55t120 -18q68 0 104.5 22t36.5 61q0 23 -15 39t-48 28t-88 24q-69 14 -118 33t-79.5 44t-44.5 58.5t-14 77.5q0 63 35.5 113.5t99 79.5t148.5 29q51 0 99.5 -10t89.5 -28t69 -44l-50 -112q-48 37 -100 55
t-106 18q-61 0 -97 -24.5t-36 -66.5q0 -23 14 -39t46.5 -28.5t89.5 -25.5q67 -14 116 -33t80.5 -43.5t46.5 -57t15 -74.5q0 -67 -35 -115.5t-101 -75t-159 -26.5zM378 773h-93l103 157h140z" />
    <glyph glyph-name="sacute" unicode="&#x15b;" horiz-adv-x="504" 
d="M256 -8q-145 0 -229 62l41 105q40 -29 89.5 -44.5t99.5 -15.5q39 0 60 12.5t21 34.5q0 19 -15 29.5t-53 19.5l-83 20q-74 15 -108.5 50t-34.5 93q0 47 27.5 83.5t76.5 57.5t114 21q55 0 106 -16.5t93 -46.5l-42 -101q-39 27 -79.5 41t-78.5 14q-37 0 -58 -13t-21 -36
q0 -17 12.5 -27t44.5 -18l85 -19q78 -18 113 -54t35 -96q0 -72 -57.5 -114t-158.5 -42zM307 572h-93l98 206h149z" />
    <glyph glyph-name="Scircumflex" unicode="&#x15c;" horiz-adv-x="657" 
d="M320 -9q-54 0 -105.5 9.5t-96.5 28t-78 44.5l51 112q53 -37 110 -55t120 -18q68 0 104.5 22t36.5 61q0 23 -15 39t-48 28t-88 24q-69 14 -118 33t-79.5 44t-44.5 58.5t-14 77.5q0 63 35.5 113.5t99 79.5t148.5 29q51 0 99.5 -10t89.5 -28t69 -44l-50 -112q-48 37 -100 55
t-106 18q-61 0 -97 -24.5t-36 -66.5q0 -23 14 -39t46.5 -28.5t89.5 -25.5q67 -14 116 -33t80.5 -43.5t46.5 -57t15 -74.5q0 -67 -35 -115.5t-101 -75t-159 -26.5zM269 773h-114l134 157h85l134 -157h-114l-62 86z" />
    <glyph glyph-name="scircumflex" unicode="&#x15d;" horiz-adv-x="504" 
d="M256 -8q-145 0 -229 62l41 105q40 -29 89.5 -44.5t99.5 -15.5q39 0 60 12.5t21 34.5q0 19 -15 29.5t-53 19.5l-83 20q-74 15 -108.5 50t-34.5 93q0 47 27.5 83.5t76.5 57.5t114 21q55 0 106 -16.5t93 -46.5l-42 -101q-39 27 -79.5 41t-78.5 14q-37 0 -58 -13t-21 -36
q0 -17 12.5 -27t44.5 -18l85 -19q78 -18 113 -54t35 -96q0 -72 -57.5 -114t-158.5 -42zM202 572h-118l131 206h91l131 -206h-118l-58 117z" />
    <glyph glyph-name="Scedilla" unicode="&#x15e;" horiz-adv-x="657" 
d="M320 -9q-54 0 -105.5 9.5t-96.5 28t-78 44.5l51 112q53 -37 110 -55t120 -18q68 0 104.5 22t36.5 61q0 23 -15 39t-48 28t-88 24q-69 14 -118 33t-79.5 44t-44.5 58.5t-14 77.5q0 63 35.5 113.5t99 79.5t148.5 29q51 0 99.5 -10t89.5 -28t69 -44l-50 -112q-48 37 -100 55
t-106 18q-61 0 -97 -24.5t-36 -66.5q0 -23 14 -39t46.5 -28.5t89.5 -25.5q67 -14 116 -33t80.5 -43.5t46.5 -57t15 -74.5q0 -67 -35 -115.5t-101 -75t-159 -26.5zM313 -199q-21 0 -47.5 4.5t-47.5 13.5l12 59q24 -7 43 -10.5t35 -3.5q21 0 34 6t13 20q0 20 -33 20
q-9 0 -19 -2t-17 -5l-20 21l13 96h81l-11 -76l-37 7q11 4 26 6.5t26 2.5q39 0 62 -19t23 -51q0 -38 -34.5 -63.5t-101.5 -25.5z" />
    <glyph glyph-name="scedilla" unicode="&#x15f;" horiz-adv-x="504" 
d="M256 -8q-145 0 -229 62l41 105q40 -29 89.5 -44.5t99.5 -15.5q39 0 60 12.5t21 34.5q0 19 -15 29.5t-53 19.5l-83 20q-74 15 -108.5 50t-34.5 93q0 47 27.5 83.5t76.5 57.5t114 21q55 0 106 -16.5t93 -46.5l-42 -101q-39 27 -79.5 41t-78.5 14q-37 0 -58 -13t-21 -36
q0 -17 12.5 -27t44.5 -18l85 -19q78 -18 113 -54t35 -96q0 -72 -57.5 -114t-158.5 -42zM238 -199q-21 0 -47.5 4.5t-47.5 13.5l12 59q24 -7 43 -10.5t35 -3.5q21 0 34 6t13 20q0 20 -33 20q-9 0 -19 -2t-17 -5l-20 21l13 96h81l-11 -76l-37 7q11 4 26 6.5t26 2.5
q39 0 62 -19t23 -51q0 -38 -34.5 -63.5t-101.5 -25.5z" />
    <glyph glyph-name="Scaron" unicode="&#x160;" horiz-adv-x="657" 
d="M320 -9q-54 0 -105.5 9.5t-96.5 28t-78 44.5l51 112q53 -37 110 -55t120 -18q68 0 104.5 22t36.5 61q0 23 -15 39t-48 28t-88 24q-69 14 -118 33t-79.5 44t-44.5 58.5t-14 77.5q0 63 35.5 113.5t99 79.5t148.5 29q51 0 99.5 -10t89.5 -28t69 -44l-50 -112q-48 37 -100 55
t-106 18q-61 0 -97 -24.5t-36 -66.5q0 -23 14 -39t46.5 -28.5t89.5 -25.5q67 -14 116 -33t80.5 -43.5t46.5 -57t15 -74.5q0 -67 -35 -115.5t-101 -75t-159 -26.5zM394 930h114l-134 -157h-85l-134 157h114l63 -87z" />
    <glyph glyph-name="scaron" unicode="&#x161;" horiz-adv-x="504" 
d="M256 -8q-145 0 -229 62l41 105q40 -29 89.5 -44.5t99.5 -15.5q39 0 60 12.5t21 34.5q0 19 -15 29.5t-53 19.5l-83 20q-74 15 -108.5 50t-34.5 93q0 47 27.5 83.5t76.5 57.5t114 21q55 0 106 -16.5t93 -46.5l-42 -101q-39 27 -79.5 41t-78.5 14q-37 0 -58 -13t-21 -36
q0 -17 12.5 -27t44.5 -18l85 -19q78 -18 113 -54t35 -96q0 -72 -57.5 -114t-158.5 -42zM319 778h118l-131 -206h-91l-131 206h118l59 -118z" />
    <glyph glyph-name="uni0162" unicode="&#x162;" horiz-adv-x="628" 
d="M235 0v585h-223v127h604v-127h-223v-585h-158zM300 -199q-21 0 -47.5 4.5t-47.5 13.5l12 59q24 -7 43 -10.5t35 -3.5q21 0 34 6t13 20q0 20 -33 20q-9 0 -19 -2t-17 -5l-20 21l13 96h81l-11 -76l-37 7q11 4 26 6.5t26 2.5q39 0 62 -19t23 -51q0 -38 -34.5 -63.5
t-101.5 -25.5z" />
    <glyph glyph-name="uni0163" unicode="&#x163;" horiz-adv-x="396" 
d="M4 394v113h376v-113h-376zM380 122v-116q-21 -8 -42 -11t-45 -3q-94 0 -143.5 53.5t-49.5 148.5v432l151 49v-478q0 -30 11 -48t29 -25.5t39 -7.5q12 0 23.5 1.5t26.5 4.5zM236 -199q-21 0 -47.5 4.5t-47.5 13.5l12 59q24 -7 43 -10.5t35 -3.5q21 0 34 6t13 20
q0 20 -33 20q-9 0 -19 -2t-17 -5l-20 21l13 96h81l-11 -76l-37 7q11 4 26 6.5t26 2.5q39 0 62 -19t23 -51q0 -38 -34.5 -63.5t-101.5 -25.5z" />
    <glyph glyph-name="Tcaron" unicode="&#x164;" horiz-adv-x="628" 
d="M235 0v585h-223v127h604v-127h-223v-585h-158zM376 930h114l-134 -157h-85l-134 157h114l63 -87z" />
    <glyph glyph-name="tcaron" unicode="&#x165;" horiz-adv-x="396" 
d="M4 394v113h376v-113h-376zM380 122v-116q-21 -8 -42 -11t-45 -3q-94 0 -143.5 53.5t-49.5 148.5v432l151 49v-478q0 -30 11 -48t29 -25.5t39 -7.5q12 0 23.5 1.5t26.5 4.5zM344.582 537.412h-73.3359v176.405h100.576z" />
    <glyph glyph-name="Tbar" unicode="&#x166;" horiz-adv-x="628" 
d="M98 301v118h431v-118h-431zM235 0v585h-223v127h604v-127h-223v-585h-158z" />
    <glyph glyph-name="tbar" unicode="&#x167;" horiz-adv-x="407" 
d="M30 234v106h334v-106h-334zM9 394v113h376v-113h-376zM386 122v-116q-21 -8 -42.5 -11t-45.5 -3q-94 0 -143.5 53.5t-49.5 148.5v432l153 49v-478q0 -30 10.5 -48t28 -25.5t38.5 -7.5q12 0 23.5 1.5t27.5 4.5z" />
    <glyph glyph-name="Utilde" unicode="&#x168;" horiz-adv-x="746" 
d="M374 -9q-151 0 -228.5 77t-77.5 226v418h152v-425q0 -85 39 -130t115 -45q73 0 112 45t39 130v425h155v-418q0 -148 -79 -225.5t-227 -77.5zM198 780q0 76 32 111.5t77 35.5q26 0 49.5 -13t44.5 -26.5t40 -13.5q18 0 30 13t14 37h64q0 -77 -32 -112t-77 -35
q-26 0 -49.5 13t-44.5 26t-40 13q-18 0 -30 -13t-14 -36h-64z" />
    <glyph glyph-name="utilde" unicode="&#x169;" horiz-adv-x="606" 
d="M247 -8q-95 0 -142 53t-47 160v302h151v-305q0 -47 19.5 -69.5t60.5 -22.5q46 0 75 32t29 85v280h152v-507h-147v101l13 -1q-22 -53 -64.5 -80.5t-99.5 -27.5zM127 604q0 76 32 111t77 35q26 0 49.5 -13t44.5 -26t40 -13q18 0 30 13t14 36h64q0 -76 -32 -111t-77 -35
q-26 0 -49.5 13t-44.5 26t-40 13q-18 0 -30 -13t-14 -36h-64z" />
    <glyph glyph-name="Umacron" unicode="&#x16a;" horiz-adv-x="746" 
d="M374 -9q-151 0 -228.5 77t-77.5 226v418h152v-425q0 -85 39 -130t115 -45q73 0 112 45t39 130v425h155v-418q0 -148 -79 -225.5t-227 -77.5zM216 804v95h315v-95h-315z" />
    <glyph glyph-name="umacron" unicode="&#x16b;" horiz-adv-x="606" 
d="M247 -8q-95 0 -142 53t-47 160v302h151v-305q0 -47 19.5 -69.5t60.5 -22.5q46 0 75 32t29 85v280h152v-507h-147v101l13 -1q-22 -53 -64.5 -80.5t-99.5 -27.5zM145 626v95h315v-95h-315z" />
    <glyph glyph-name="Ubreve" unicode="&#x16c;" horiz-adv-x="746" 
d="M374 -9q-151 0 -228.5 77t-77.5 226v418h152v-425q0 -85 39 -130t115 -45q73 0 112 45t39 130v425h155v-418q0 -148 -79 -225.5t-227 -77.5zM374 782q-64 0 -112 27.5t-68 82.5l70 30q18 -29 47 -39.5t63 -10.5q33 0 62 10.5t47 39.5l70 -30q-20 -55 -68 -82.5
t-111 -27.5z" />
    <glyph glyph-name="ubreve" unicode="&#x16d;" horiz-adv-x="606" 
d="M247 -8q-95 0 -142 53t-47 160v302h151v-305q0 -47 19.5 -69.5t60.5 -22.5q46 0 75 32t29 85v280h152v-507h-147v101l13 -1q-22 -53 -64.5 -80.5t-99.5 -27.5zM303 594q-41 0 -79.5 15.5t-67 48t-40.5 82.5l69 30q24 -44 54 -62t64 -18q33 0 63 18t54 62l69 -30
q-12 -50 -40 -82.5t-66.5 -48t-79.5 -15.5z" />
    <glyph glyph-name="Uring" unicode="&#x16e;" horiz-adv-x="746" 
d="M374 -9q-151 0 -228.5 77t-77.5 226v418h152v-425q0 -85 39 -130t115 -45q73 0 112 45t39 130v425h155v-418q0 -148 -79 -225.5t-227 -77.5zM374 768q-47 0 -79 31t-32 77t32 77.5t79 31.5q46 0 78 -31.5t32 -77.5t-32 -77t-78 -31zM374 830q19 0 31 13t12 33
q0 19 -12 32.5t-31 13.5q-20 0 -32 -13.5t-12 -32.5t12 -32.5t32 -13.5z" />
    <glyph glyph-name="uring" unicode="&#x16f;" horiz-adv-x="606" 
d="M247 -8q-95 0 -142 53t-47 160v302h151v-305q0 -47 19.5 -69.5t60.5 -22.5q46 0 75 32t29 85v280h152v-507h-147v101l13 -1q-22 -53 -64.5 -80.5t-99.5 -27.5zM303 567q-47 0 -79 31t-32 78q0 45 32 76.5t79 31.5q30 0 55.5 -14.5t40 -39t14.5 -54.5q0 -47 -32 -78
t-78 -31zM303 629q19 0 31 13t12 34q0 19 -12 32t-31 13q-20 0 -32 -13t-12 -32q0 -20 12 -33.5t32 -13.5z" />
    <glyph glyph-name="Uhungarumlaut" unicode="&#x170;" horiz-adv-x="746" 
d="M374 -9q-151 0 -228.5 77t-77.5 226v418h152v-425q0 -85 39 -130t115 -45q73 0 112 45t39 130v425h155v-418q0 -148 -79 -225.5t-227 -77.5zM406 773l74 157h101l-100 -157h-75zM266 773l74 157h102l-101 -157h-75z" />
    <glyph glyph-name="uhungarumlaut" unicode="&#x171;" horiz-adv-x="606" 
d="M247 -8q-95 0 -142 53t-47 160v302h151v-305q0 -47 19.5 -69.5t60.5 -22.5q46 0 75 32t29 85v280h152v-507h-147v101l13 -1q-22 -53 -64.5 -80.5t-99.5 -27.5zM265 572h-65l35 206h109zM405 572h-65l34 206h110z" />
    <glyph glyph-name="Uogonek" unicode="&#x172;" horiz-adv-x="746" 
d="M525 712h155v-418q0 -117 -49.5 -190t-143.5 -99q-31 -8 -47 -27t-16 -44q0 -27 16 -40.5t45 -13.5q13 0 26.5 3t27.5 10l18 -71q-47 -21 -100 -21q-57 0 -93.5 31.5t-36.5 79.5q0 30 15.5 56.5t44.5 42.5l10 -20h-23q-151 0 -228.5 77t-77.5 226v418h152v-425
q0 -85 39 -130t115 -45q73 0 112 45t39 130v425z" />
    <glyph glyph-name="uogonek" unicode="&#x173;" horiz-adv-x="606" 
d="M545 0h-10q-38 0 -62 -19t-24 -49q0 -28 15.5 -42t46.5 -14q28 0 56 14l18 -72q-23 -10 -49 -16t-53 -6q-58 0 -95 32.5t-37 83.5q0 42 26.5 75t74.5 51l-15 -38h-39v101l13 -1q-22 -53 -64.5 -80.5t-99.5 -27.5q-95 0 -142 53t-47 160v302h151v-305q0 -47 19.5 -69.5
t60.5 -22.5q46 0 75 32t29 85v280h152v-507z" />
    <glyph glyph-name="Wcircumflex" unicode="&#x174;" horiz-adv-x="1126" 
d="M271 0l-253 712h159l183 -551h-40l193 551h109l185 -551h-35l186 551h149l-253 -712h-125l-178 506h25l-180 -506h-125zM500 773h-114l134 157h85l134 -157h-114l-62 86z" />
    <glyph glyph-name="wcircumflex" unicode="&#x175;" horiz-adv-x="891" 
d="M205 0l-205 507h155l134 -362h-25l133 362h103l134 -362h-22l132 362h146l-205 -507h-127l-148 379h66l-143 -379h-128zM386 572h-118l131 206h91l131 -206h-118l-58 117z" />
    <glyph glyph-name="Ycircumflex" unicode="&#x176;" horiz-adv-x="642" 
d="M242 0v320l33 -90l-326 482h177l215 -337h-42l217 337h178l-326 -482l31 90v-320h-157zM258 773h-114l134 157h85l134 -157h-114l-62 86z" />
    <glyph glyph-name="ycircumflex" unicode="&#x177;" horiz-adv-x="551" 
d="M58 -228l-35 116q47 9 77.5 22.5t50.5 33.5t33 49l39 87l40 59l149 368h149l-233 -533q-31 -70 -71 -111t-90 -62t-109 -29zM227 -38l-237 545h157l146 -368zM216 572h-118l131 206h91l131 -206h-118l-58 117z" />
    <glyph glyph-name="Ydieresis" unicode="&#x178;" horiz-adv-x="642" 
d="M242 0v320l33 -90l-326 482h177l215 -337h-42l217 337h178l-326 -482l31 90v-320h-157zM347 918h139v-132h-139v132zM155 918h139v-132h-139v132z" />
    <glyph glyph-name="Zacute" unicode="&#x179;" horiz-adv-x="616" 
d="M51 0v114l374 518l-1 -44h-373v124h518v-113l-377 -519l2 44h386v-124h-529zM355 773h-93l103 157h140z" />
    <glyph glyph-name="zacute" unicode="&#x17a;" horiz-adv-x="530" 
d="M48 0v106l285 320l9 -32h-290v113h433v-102l-289 -325l-6 33h305v-113h-447zM319 572h-93l98 206h149z" />
    <glyph glyph-name="Zdotaccent" unicode="&#x17b;" horiz-adv-x="616" 
d="M51 0v114l374 518l-1 -44h-373v124h518v-113l-377 -519l2 44h386v-124h-529zM227 923h163v-142h-163v142z" />
    <glyph glyph-name="zdotaccent" unicode="&#x17c;" horiz-adv-x="530" 
d="M48 0v106l285 320l9 -32h-290v113h433v-102l-289 -325l-6 33h305v-113h-447zM191 745h163v-142h-163v142z" />
    <glyph glyph-name="Zcaron" unicode="&#x17d;" horiz-adv-x="616" 
d="M51 0v114l374 518l-1 -44h-373v124h518v-113l-377 -519l2 44h386v-124h-529zM371 930h114l-134 -157h-85l-134 157h114l63 -87z" />
    <glyph glyph-name="zcaron" unicode="&#x17e;" horiz-adv-x="530" 
d="M48 0v106l285 320l9 -32h-290v113h433v-102l-289 -325l-6 33h305v-113h-447zM331 778h118l-131 -206h-91l-131 206h118l59 -118z" />
    <glyph glyph-name="uni018F" unicode="&#x18f;" horiz-adv-x="775" 
d="M398 -9q-108 0 -186 43t-120 125.5t-42 200.5v60h578v-120h-461l40 57q-4 -121 45.5 -183t140.5 -62q86 0 131 62t45 183q0 118 -54 179t-156 61q-57 0 -110 -17t-99 -53l-50 112q31 25 74 43.5t92 28.5t98 10q110 0 190.5 -44.5t125 -126t44.5 -193.5q0 -108 -41 -190.5
t-114.5 -129t-170.5 -46.5z" />
    <glyph glyph-name="florin" unicode="&#x192;" horiz-adv-x="600" 
d="M24 -187v119h71q30 0 49.5 20t27.5 59l108 512q15 73 50 115.5t80 60.5t91 18h75v-120h-72q-29 0 -48.5 -19.5t-26.5 -58.5l-109 -512q-15 -73 -50 -115.5t-80 -60.5t-92 -18h-74zM147 412v89h387v-89h-387z" />
    <glyph glyph-name="Ohorn" unicode="&#x1a0;" horiz-adv-x="795" 
d="M398 -9q-107 0 -185 45t-120.5 127t-42.5 194q0 111 42.5 193t121 126.5t186.5 44.5q36 0 64 -4.5t61 -4.5q49 0 69 23t20 80v19h130v-38q0 -46 -19.5 -82t-54 -56t-79.5 -20l15 21q69 -46 103.5 -123t34.5 -179q0 -112 -42 -194t-119.5 -127t-184.5 -45zM398 112
q88 0 139.5 62.5t51.5 182.5t-51.5 181.5t-139.5 61.5q-89 0 -140 -61.5t-51 -181.5q0 -121 51 -183t140 -62z" />
    <glyph glyph-name="ohorn" unicode="&#x1a1;" horiz-adv-x="604" 
d="M303 -8q-82 0 -142 32t-92.5 91.5t-32.5 139.5q0 82 32.5 141t92 91.5t139.5 32.5q15 0 32.5 -2.5t32 -4.5t20.5 -2q21 0 38.5 8t28.5 31t11 66v20h130v-38q0 -65 -37 -109t-100 -52l16 28q48 -33 72 -88t24 -122q0 -80 -32.5 -139.5t-92.5 -91.5t-140 -32zM303 107
q55 0 85 36.5t30 112.5q0 75 -30 111.5t-85 36.5q-56 0 -86.5 -36.5t-30.5 -111.5q0 -76 30 -112.5t87 -36.5z" />
    <glyph glyph-name="Uhorn" unicode="&#x1af;" horiz-adv-x="746" 
d="M662 834h131v-38q0 -67 -40.5 -110t-106.5 -47l34 43v-388q0 -148 -79 -225.5t-227 -77.5q-151 0 -228.5 77t-77.5 226v418h152v-425q0 -85 39 -130t115 -45q73 0 112 45t39 130v425h45q51 0 71.5 22.5t20.5 80.5v19z" />
    <glyph glyph-name="uhorn" unicode="&#x1b0;" horiz-adv-x="631" 
d="M531 636h130v-38q0 -46 -18.5 -81.5t-51.5 -56.5t-78 -24l32 50v-486h-147v101l13 -1q-22 -53 -64.5 -80.5t-99.5 -27.5q-95 0 -142 53t-47 160v302h151v-305q0 -47 19.5 -69.5t60.5 -22.5q46 0 75 32t29 85v280h43q52 0 73.5 24.5t21.5 84.5v20z" />
    <glyph glyph-name="uni01C4" unicode="&#x1c4;" horiz-adv-x="1371" 
d="M71 0v712h276q117 0 200.5 -42t128 -121.5t44.5 -191.5q0 -113 -44 -192.5t-127.5 -122t-201.5 -42.5h-276zM227 126h109q114 0 171 57.5t57 173.5q0 229 -228 229h-109v-460zM807 0v114l374 518l-1 -44h-373v124h518v-113l-377 -519l2 44h386v-124h-529zM1127 930h114
l-134 -157h-85l-134 157h114l63 -87z" />
    <glyph glyph-name="uni01C5" unicode="&#x1c5;" horiz-adv-x="1300" 
d="M71 0v712h276q117 0 200.5 -42t128 -121.5t44.5 -191.5q0 -113 -44 -192.5t-127.5 -122t-201.5 -42.5h-276zM227 126h109q114 0 171 57.5t57 173.5q0 229 -228 229h-109v-460zM819 0v106l285 320l9 -32h-290v113h433v-102l-289 -325l-6 33h305v-113h-447zM1102 778h118
l-131 -206h-91l-131 206h118l59 -118z" />
    <glyph glyph-name="uni01C6" unicode="&#x1c6;" horiz-adv-x="1160" 
d="M569 0h-149v124l12 -22q-17 -52 -64 -81t-108 -29q-66 0 -116.5 33.5t-79 93t-28.5 139.5q0 79 28 138t79 91.5t117 32.5q61 0 108 -30.5t64 -80.5l-14 -18v345h151v-736zM304 107q55 0 85.5 38t30.5 111q0 70 -30.5 109t-85.5 39q-57 0 -87.5 -38t-30.5 -108
q0 -73 31.5 -112t86.5 -39zM678 0v106l285 320l9 -32h-290v113h433v-102l-289 -325l-6 33h305v-113h-447zM961 778h118l-131 -206h-91l-131 206h118l59 -118z" />
    <glyph glyph-name="uni01C7" unicode="&#x1c7;" horiz-adv-x="900" 
d="M71 0v712h156v-585h288v-127h-444zM519 -179v127q63 -9 96 -5t45.5 26.5t12.5 70.5v672h156v-670q0 -92 -28 -147t-96 -73.5t-186 -0.5z" />
    <glyph glyph-name="uni01C8" unicode="&#x1c8;" horiz-adv-x="843" 
d="M71 0v712h156v-585h318v-127h-474zM504 -93q15 -4 26 -5.5t23 -1.5q21 0 39 8t28 26t10 48v525h151v-529q0 -95 -48.5 -148.5t-142.5 -53.5q-22 0 -44 3t-42 10v118zM623 745h163v-142h-163v142z" />
    <glyph glyph-name="uni01C9" unicode="&#x1c9;" horiz-adv-x="547" 
d="M61 0v736h151v-736h-151zM209 -93q15 -4 26 -5.5t23 -1.5q21 0 39 8t28 26t10 48v525h151v-529q0 -95 -48.5 -148.5t-142.5 -53.5q-22 0 -44 3t-42 10v118zM328 745h163v-142h-163v142z" />
    <glyph glyph-name="uni01CA" unicode="&#x1ca;" horiz-adv-x="1140" 
d="M71 0v712h115l384 -490l-29 -19v509h147v-712h-116l-382 488l27 21v-509h-146zM760 -179v127q63 -9 95.5 -5t45 26.5t12.5 70.5v672h156v-670q0 -92 -28 -147t-96 -73.5t-185 -0.5z" />
    <glyph glyph-name="uni01CB" unicode="&#x1cb;" horiz-adv-x="1034" 
d="M71 0v712h115l384 -490l-29 -19v509h147v-712h-116l-382 488l27 21v-509h-146zM695 -93q15 -4 26 -5.5t23 -1.5q21 0 39 8t28 26t10 48v525h151v-529q0 -95 -48.5 -148.5t-142.5 -53.5q-22 0 -44 3t-42 10v118zM814 745h163v-142h-163v142z" />
    <glyph glyph-name="uni01CC" unicode="&#x1cc;" horiz-adv-x="886" 
d="M61 0v362q0 36 -1.5 72.5t-6.5 72.5h142l11 -99l-11 1q26 54 72.5 82.5t107.5 28.5q179 0 179 -213v-307h-151v300q0 54 -19.5 78t-61.5 24q-50 0 -80 -32t-30 -86v-284h-151zM547 -93q15 -4 26 -5.5t23 -1.5q21 0 39 8t28 26t10 48v525h151v-529q0 -95 -48.5 -148.5
t-142.5 -53.5q-22 0 -44 3t-42 10v118zM666 745h163v-142h-163v142z" />
    <glyph glyph-name="uni01CE" unicode="&#x1ce;" horiz-adv-x="630" 
d="M260 -8q-66 0 -117 32t-79 91t-28 138t28.5 139.5t79 94t116.5 33.5q61 0 108 -30t64 -81l-12 -8v106h149v-507h-149v104l12 -2q-17 -52 -64 -81t-108 -29zM304 107q55 0 85.5 38t30.5 110t-30.5 110.5t-85.5 38.5t-86.5 -40t-31.5 -111t30.5 -108.5t87.5 -37.5zM373 778
h118l-131 -206h-91l-131 206h118l59 -118z" />
    <glyph glyph-name="Gcaron" unicode="&#x1e6;" horiz-adv-x="745" 
d="M418 -9q-114 0 -196.5 44t-127 126t-44.5 196q0 112 44.5 194t125.5 126t191 44q76 0 143 -21t110 -59l-50 -112q-51 36 -97.5 52t-101.5 16q-103 0 -154.5 -60t-51.5 -180q0 -123 53.5 -184.5t162.5 -61.5q38 0 76.5 6.5t74.5 19.5l-34 -51v198h-140v109h281v-349
q-35 -17 -78.5 -29t-91 -18t-95.5 -6zM473 930h114l-134 -157h-85l-134 157h114l63 -87z" />
    <glyph glyph-name="gcaron" unicode="&#x1e7;" horiz-adv-x="634" 
d="M300 -224q-120 0 -210 47l23 112q45 -23 91 -34t91 -11q65 0 97 30t32 92v117l12 -6q-12 -28 -37 -53t-60.5 -40.5t-76.5 -15.5q-66 0 -117 31.5t-80 88.5t-29 133t29 132.5t80 88.5t117 32q62 0 109.5 -30.5t64.5 -80.5l-12 -9v107h150v-483q0 -122 -69.5 -185
t-204.5 -63zM306 129q55 0 86.5 36.5t31.5 101.5q0 63 -31 100t-87 37t-88 -36.5t-32 -100.5t32.5 -101t87.5 -37zM376 778h118l-131 -206h-91l-131 206h118l59 -118z" />
    <glyph glyph-name="uni01EA" unicode="&#x1ea;" horiz-adv-x="795" 
d="M510 5q-65 -20 -65 -71q0 -27 16 -40.5t44 -13.5q13 0 27 3t29 10l17 -71q-47 -21 -101 -21q-57 0 -93 31.5t-36 79.5q0 30 14 56.5t40 43.5l13 -21q-112 -4 -194 40t-126.5 127t-44.5 199q0 111 42.5 193t120.5 126.5t185 44.5t184.5 -44.5t119.5 -126.5t42 -193
q0 -135 -61 -227t-173 -125zM207 357q0 -121 51 -183t140 -62q88 0 139.5 62.5t51.5 182.5t-51.5 181.5t-139.5 61.5q-89 0 -140 -61.5t-51 -181.5z" />
    <glyph glyph-name="uni01EB" unicode="&#x1eb;" horiz-adv-x="604" 
d="M366 -204q-58 0 -94.5 32t-36.5 82q0 32 16 59t47 45l10 -22q-84 0 -145 32t-94 91.5t-33 140.5t32.5 140t92.5 91.5t142 32.5q80 0 140 -32.5t92.5 -91.5t32.5 -140q0 -94 -44.5 -161t-122.5 -89q-34 -9 -51.5 -28t-17.5 -46q0 -28 16.5 -42t46.5 -14q27 0 56 14l17 -72
q-23 -10 -48.5 -16t-53.5 -6zM303 107q55 0 85 36.5t30 112.5q0 75 -30 111.5t-85 36.5q-56 0 -86.5 -36.5t-30.5 -111.5q0 -76 30 -112.5t87 -36.5z" />
    <glyph glyph-name="Aringacute" unicode="&#x1fa;" horiz-adv-x="759" 
d="M-11 0l327 712h126l327 -712h-155l-252 588h38l-254 -588h-157zM137 158l60 119h356l59 -119h-475zM380 677q-47 0 -78.5 31t-31.5 78q0 45 31.5 76.5t78.5 31.5q45 0 77.5 -31.5t32.5 -76.5q0 -47 -32.5 -78t-77.5 -31zM380 739q19 0 31.5 14t12.5 33t-12.5 32t-31.5 13
t-31.5 -13t-12.5 -32t12.5 -33t31.5 -14zM472 822l-62 45l82 88h140z" />
    <glyph glyph-name="aringacute" unicode="&#x1fb;" horiz-adv-x="630" 
d="M260 -8q-66 0 -117 32t-79 91t-28 138t28.5 139.5t79 94t116.5 33.5q61 0 108 -30t64 -81l-12 -8v106h149v-507h-149v104l12 -2q-17 -52 -64 -81t-108 -29zM304 107q55 0 85.5 38t30.5 110t-30.5 110.5t-85.5 38.5t-86.5 -40t-31.5 -111t30.5 -108.5t87.5 -37.5zM315 568
q-47 0 -79.5 32t-32.5 80q0 45 32.5 77t79.5 32t80 -32t33 -77q0 -48 -33 -80t-80 -32zM315 631q20 0 32.5 14.5t12.5 34.5t-12.5 33t-32.5 13t-32 -13t-12 -33t12 -34.5t32 -14.5zM407 717l-57 48l83 117l133 -6z" />
    <glyph glyph-name="AEacute" unicode="&#x1fc;" horiz-adv-x="1010" 
d="M-31 0l448 712h556v-122h-503l31 21l-363 -611h-169zM138 158l60 119h359l34 -119h-453zM549 0l-44 642h140l38 -520h290v-122h-424zM572 301v122h380v-122h-380zM555 773h-93l103 157h140z" />
    <glyph glyph-name="aeacute" unicode="&#x1fd;" horiz-adv-x="866" 
d="M627 -8q-118 0 -183 68.5t-66 194.5q0 79 29.5 138.5t82.5 93t124 33.5q65 0 114 -32.5t76 -90.5t27 -135v-21h-340l1 75h249l-38 -31q1 62 -23 95.5t-70 33.5q-51 0 -79 -38.5t-28 -124.5q0 -65 31 -105t103 -40q35 0 73 12.5t73 37.5l39 -102q-36 -29 -89 -45.5
t-106 -16.5zM242 -8q-58 0 -103.5 21t-71.5 58.5t-26 86.5q0 56 28 90.5t89.5 51t163.5 16.5h44v-73h-35q-53 0 -84.5 -9t-45.5 -26.5t-14 -43.5q0 -31 21 -49t54 -18q32 0 53.5 14.5t32.5 40.5t11 57v111q0 46 -19 66t-64 20q-42 0 -87.5 -13.5t-87.5 -38.5l-39 103
q28 18 66 32.5t79 22.5t77 8q105 0 155 -53.5t50 -164.5v-96l-50 -9q0 -98 -54.5 -151.5t-142.5 -53.5zM477 572h-93l98 206h149z" />
    <glyph glyph-name="Oslashacute" unicode="&#x1fe;" horiz-adv-x="795" 
d="M398 -9q-107 0 -185 45t-120.5 127t-42.5 194q0 111 42.5 193t120.5 126.5t185 44.5t184.5 -44.5t119.5 -126.5t42 -193q0 -112 -42 -194t-119.5 -127t-184.5 -45zM218 -68l-100 60l459 788l100 -60zM398 112q88 0 139.5 62.5t51.5 182.5t-51.5 181.5t-139.5 61.5
q-89 0 -140 -61.5t-51 -181.5q0 -121 51 -183t140 -62zM443 773h-93l103 157h140z" />
    <glyph glyph-name="oslashacute" unicode="&#x1ff;" horiz-adv-x="604" 
d="M303 -8q-82 0 -142 32t-92.5 91.5t-32.5 140.5t32.5 140t92.5 91.5t142 32.5q80 0 140 -32.5t92.5 -91.5t32.5 -140t-32.5 -140.5t-92.5 -91.5t-140 -32zM164 -64l-71 42l347 596l72 -42zM303 106q57 0 87.5 36.5t30.5 113.5q0 76 -30.5 113t-87.5 37q-59 0 -89.5 -37
t-30.5 -113q0 -77 30.5 -113.5t89.5 -36.5zM349 572h-93l98 206h149z" />
    <glyph glyph-name="uni0200" unicode="&#x200;" horiz-adv-x="759" 
d="M146 0h-157l327 712h126l327 -712h-155l-252 588h38zM137 158l60 119h356l59 -119h-475zM411 773l-101 157h102l74 -157h-75zM271 773l-100 157h101l74 -157h-75z" />
    <glyph glyph-name="uni0201" unicode="&#x201;" horiz-adv-x="630" 
d="M260 -8q-66 0 -117 32t-79 91t-28 138t28.5 139.5t79 94t116.5 33.5q61 0 108 -30t64 -81l-12 -8v106h149v-507h-149v104l12 -2q-17 -52 -64 -81t-108 -29zM304 107q55 0 85.5 38t30.5 110t-30.5 110.5t-85.5 38.5t-86.5 -40t-31.5 -111t30.5 -108.5t87.5 -37.5zM352 572
l-79 206h109l35 -206h-65zM212 572l-79 206h110l34 -206h-65z" />
    <glyph glyph-name="uni0202" unicode="&#x202;" horiz-adv-x="759" 
d="M146 0h-157l327 712h126l327 -712h-155l-252 588h38zM137 158l60 119h356l59 -119h-475zM379 921q63 0 111 -27t68 -82l-70 -30q-18 28 -47 39t-62 11q-34 0 -63 -11t-47 -39l-70 30q20 55 68 82t112 27z" />
    <glyph glyph-name="uni0203" unicode="&#x203;" horiz-adv-x="630" 
d="M260 -8q-66 0 -117 32t-79 91t-28 138t28.5 139.5t79 94t116.5 33.5q61 0 108 -30t64 -81l-12 -8v106h149v-507h-149v104l12 -2q-17 -52 -64 -81t-108 -29zM304 107q55 0 85.5 38t30.5 110t-30.5 110.5t-85.5 38.5t-86.5 -40t-31.5 -111t30.5 -108.5t87.5 -37.5zM315 766
q41 0 79 -16t66.5 -48t40.5 -82l-69 -29q-24 43 -54 61.5t-63 18.5q-34 0 -64 -18.5t-54 -61.5l-69 29q12 50 40.5 82t67 48t79.5 16z" />
    <glyph glyph-name="uni0204" unicode="&#x204;" horiz-adv-x="599" 
d="M71 0v712h491v-121h-338v-168h317v-122h-317v-180h338v-121h-491zM365 773l-101 157h102l74 -157h-75zM225 773l-100 157h101l74 -157h-75z" />
    <glyph glyph-name="uni0205" unicode="&#x205;" horiz-adv-x="550" 
d="M507 54q-37 -29 -90 -45.5t-107 -16.5q-85 0 -146.5 32t-94.5 91t-33 140q0 78 32 138t87.5 93.5t129.5 33.5q71 0 123 -31.5t80 -89t28 -136.5v-22h-347l2 75h255l-39 -31q1 64 -24.5 96.5t-73.5 32.5q-52 0 -80.5 -37.5t-28.5 -109.5q0 -85 33.5 -123t102.5 -38
q40 0 79 13t72 37zM322 572l-79 206h109l35 -206h-65zM182 572l-79 206h110l34 -206h-65z" />
    <glyph glyph-name="uni0206" unicode="&#x206;" horiz-adv-x="599" 
d="M71 0v712h491v-121h-338v-168h317v-122h-317v-180h338v-121h-491zM333 921q63 0 111 -27t68 -82l-70 -30q-18 28 -47 39t-62 11q-34 0 -63 -11t-47 -39l-70 30q20 55 68 82t112 27z" />
    <glyph glyph-name="uni0207" unicode="&#x207;" horiz-adv-x="550" 
d="M507 54q-37 -29 -90 -45.5t-107 -16.5q-85 0 -146.5 32t-94.5 91t-33 140q0 78 32 138t87.5 93.5t129.5 33.5q71 0 123 -31.5t80 -89t28 -136.5v-22h-347l2 75h255l-39 -31q1 64 -24.5 96.5t-73.5 32.5q-52 0 -80.5 -37.5t-28.5 -109.5q0 -85 33.5 -123t102.5 -38
q40 0 79 13t72 37zM285 766q41 0 79 -16t66.5 -48t40.5 -82l-69 -29q-24 43 -54 61.5t-63 18.5q-34 0 -64 -18.5t-54 -61.5l-69 29q12 50 40.5 82t67 48t79.5 16z" />
    <glyph glyph-name="uni0208" unicode="&#x208;" horiz-adv-x="299" 
d="M71 0v712h156v-712h-156zM181 773l-101 157h102l74 -157h-75zM41 773l-100 157h101l74 -157h-75z" />
    <glyph glyph-name="uni0209" unicode="&#x209;" horiz-adv-x="274" 
d="M61 0v507h151v-507h-151zM174 572l-79 206h109l35 -206h-65zM34 572l-79 206h110l34 -206h-65z" />
    <glyph glyph-name="uni020A" unicode="&#x20a;" horiz-adv-x="299" 
d="M71 0v712h156v-712h-156zM149 921q63 0 111 -27t68 -82l-70 -30q-18 28 -47 39t-62 11q-34 0 -63 -11t-47 -39l-70 30q20 55 68 82t112 27z" />
    <glyph glyph-name="uni020B" unicode="&#x20b;" horiz-adv-x="274" 
d="M61 0v507h151v-507h-151zM137 766q41 0 79 -16t66.5 -48t40.5 -82l-69 -29q-24 43 -54 61.5t-63 18.5q-34 0 -64 -18.5t-54 -61.5l-69 29q12 50 40.5 82t67 48t79.5 16z" />
    <glyph glyph-name="uni020C" unicode="&#x20c;" horiz-adv-x="795" 
d="M398 -9q-107 0 -185 45t-120.5 127t-42.5 194q0 111 42.5 193t120.5 126.5t185 44.5t184.5 -44.5t119.5 -126.5t42 -193q0 -112 -42 -194t-119.5 -127t-184.5 -45zM398 112q88 0 139.5 62.5t51.5 182.5t-51.5 181.5t-139.5 61.5q-89 0 -140 -61.5t-51 -181.5
q0 -121 51 -183t140 -62zM429 773l-101 157h102l74 -157h-75zM289 773l-100 157h101l74 -157h-75z" />
    <glyph glyph-name="uni020D" unicode="&#x20d;" horiz-adv-x="604" 
d="M303 -8q-82 0 -142 32t-92.5 91.5t-32.5 140.5t32.5 140t92.5 91.5t142 32.5q80 0 140 -32.5t92.5 -91.5t32.5 -140t-32.5 -140.5t-92.5 -91.5t-140 -32zM303 107q55 0 85 36.5t30 112.5q0 75 -30 111.5t-85 36.5q-56 0 -86.5 -36.5t-30.5 -111.5q0 -76 30 -112.5
t87 -36.5zM340 572l-79 206h109l35 -206h-65zM200 572l-79 206h110l34 -206h-65z" />
    <glyph glyph-name="uni020E" unicode="&#x20e;" horiz-adv-x="795" 
d="M398 -9q-107 0 -185 45t-120.5 127t-42.5 194q0 111 42.5 193t120.5 126.5t185 44.5t184.5 -44.5t119.5 -126.5t42 -193q0 -112 -42 -194t-119.5 -127t-184.5 -45zM398 112q88 0 139.5 62.5t51.5 182.5t-51.5 181.5t-139.5 61.5q-89 0 -140 -61.5t-51 -181.5
q0 -121 51 -183t140 -62zM397 921q63 0 111 -27t68 -82l-70 -30q-18 28 -47 39t-62 11q-34 0 -63 -11t-47 -39l-70 30q20 55 68 82t112 27z" />
    <glyph glyph-name="uni020F" unicode="&#x20f;" horiz-adv-x="604" 
d="M303 -8q-82 0 -142 32t-92.5 91.5t-32.5 140.5t32.5 140t92.5 91.5t142 32.5q80 0 140 -32.5t92.5 -91.5t32.5 -140t-32.5 -140.5t-92.5 -91.5t-140 -32zM303 107q55 0 85 36.5t30 112.5q0 75 -30 111.5t-85 36.5q-56 0 -86.5 -36.5t-30.5 -111.5q0 -76 30 -112.5
t87 -36.5zM303 766q41 0 79 -16t66.5 -48t40.5 -82l-69 -29q-24 43 -54 61.5t-63 18.5q-34 0 -64 -18.5t-54 -61.5l-69 29q12 50 40.5 82t67 48t79.5 16z" />
    <glyph glyph-name="uni0210" unicode="&#x210;" horiz-adv-x="708" 
d="M71 0v712h317q125 0 189 -54.5t64 -154.5q0 -95 -66 -152.5t-184 -57.5l82 17q37 0 66.5 -22t46.5 -67l86 -221h-165l-91 237q-11 29 -35 39.5t-55 10.5h-101v-287h-154zM224 406h141q67 0 98 23t31 70q0 48 -30.5 70.5t-98.5 22.5h-141v-186zM388 773l-101 157h102
l74 -157h-75zM248 773l-100 157h101l74 -157h-75z" />
    <glyph glyph-name="uni0211" unicode="&#x211;" horiz-adv-x="410" 
d="M61 0v362q0 36 -1.5 72.5t-6.5 72.5h142l16 -134l-16 8q12 68 57.5 103t103.5 35q17 0 30.5 -3t23.5 -7l-1 -138q-37 17 -74 17q-41 0 -67.5 -15t-41 -42.5t-14.5 -65.5v-265h-151zM278 572l-79 206h109l35 -206h-65zM138 572l-79 206h110l34 -206h-65z" />
    <glyph glyph-name="uni0212" unicode="&#x212;" horiz-adv-x="708" 
d="M71 0v712h317q125 0 189 -54.5t64 -154.5q0 -95 -66 -152.5t-184 -57.5l82 17q37 0 66.5 -22t46.5 -67l86 -221h-165l-91 237q-11 29 -35 39.5t-55 10.5h-101v-287h-154zM224 406h141q67 0 98 23t31 70q0 48 -30.5 70.5t-98.5 22.5h-141v-186zM356 921q63 0 111 -27
t68 -82l-70 -30q-18 28 -47 39t-62 11q-34 0 -63 -11t-47 -39l-70 30q20 55 68 82t112 27z" />
    <glyph glyph-name="uni0213" unicode="&#x213;" horiz-adv-x="410" 
d="M61 0v362q0 36 -1.5 72.5t-6.5 72.5h142l16 -134l-16 8q12 68 57.5 103t103.5 35q17 0 30.5 -3t23.5 -7l-1 -138q-37 17 -74 17q-41 0 -67.5 -15t-41 -42.5t-14.5 -65.5v-265h-151zM241 766q41 0 79 -16t66.5 -48t40.5 -82l-69 -29q-24 43 -54 61.5t-63 18.5
q-34 0 -64 -18.5t-54 -61.5l-69 29q12 50 40.5 82t67 48t79.5 16z" />
    <glyph glyph-name="uni0214" unicode="&#x214;" horiz-adv-x="746" 
d="M374 -9q-151 0 -228.5 77t-77.5 226v418h152v-425q0 -85 39 -130t115 -45q73 0 112 45t39 130v425h155v-418q0 -148 -79 -225.5t-227 -77.5zM406 773l-101 157h102l74 -157h-75zM266 773l-100 157h101l74 -157h-75z" />
    <glyph glyph-name="uni0215" unicode="&#x215;" horiz-adv-x="606" 
d="M247 -8q-95 0 -142 53t-47 160v302h151v-305q0 -47 19.5 -69.5t60.5 -22.5q46 0 75 32t29 85v280h152v-507h-147v101l13 -1q-22 -53 -64.5 -80.5t-99.5 -27.5zM340 572l-79 206h109l35 -206h-65zM200 572l-79 206h110l34 -206h-65z" />
    <glyph glyph-name="uni0216" unicode="&#x216;" horiz-adv-x="746" 
d="M374 -9q-151 0 -228.5 77t-77.5 226v418h152v-425q0 -85 39 -130t115 -45q73 0 112 45t39 130v425h155v-418q0 -148 -79 -225.5t-227 -77.5zM374 921q63 0 111 -27t68 -82l-70 -30q-18 28 -47 39t-62 11q-34 0 -63 -11t-47 -39l-70 30q20 55 68 82t112 27z" />
    <glyph glyph-name="uni0217" unicode="&#x217;" horiz-adv-x="606" 
d="M247 -8q-95 0 -142 53t-47 160v302h151v-305q0 -47 19.5 -69.5t60.5 -22.5q46 0 75 32t29 85v280h152v-507h-147v101l13 -1q-22 -53 -64.5 -80.5t-99.5 -27.5zM303 766q41 0 79 -16t66.5 -48t40.5 -82l-69 -29q-24 43 -54 61.5t-63 18.5q-34 0 -64 -18.5t-54 -61.5
l-69 29q12 50 40.5 82t67 48t79.5 16z" />
    <glyph glyph-name="uni0218" unicode="&#x218;" horiz-adv-x="657" 
d="M320 -9q-54 0 -105.5 9.5t-96.5 28t-78 44.5l51 112q53 -37 110 -55t120 -18q68 0 104.5 22t36.5 61q0 23 -15 39t-48 28t-88 24q-69 14 -118 33t-79.5 44t-44.5 58.5t-14 77.5q0 63 35.5 113.5t99 79.5t148.5 29q51 0 99.5 -10t89.5 -28t69 -44l-50 -112q-48 37 -100 55
t-106 18q-61 0 -97 -24.5t-36 -66.5q0 -23 14 -39t46.5 -28.5t89.5 -25.5q67 -14 116 -33t80.5 -43.5t46.5 -57t15 -74.5q0 -67 -35 -115.5t-101 -75t-159 -26.5zM401 -67v-64q0 -44 -13 -79.5t-47 -66.5l-55 37q22 20 29.5 40t7.5 43l33 -24h-105v114h150z" />
    <glyph glyph-name="uni0219" unicode="&#x219;" horiz-adv-x="504" 
d="M256 -8q-145 0 -229 62l41 105q40 -29 89.5 -44.5t99.5 -15.5q39 0 60 12.5t21 34.5q0 19 -15 29.5t-53 19.5l-83 20q-74 15 -108.5 50t-34.5 93q0 47 27.5 83.5t76.5 57.5t114 21q55 0 106 -16.5t93 -46.5l-42 -101q-39 27 -79.5 41t-78.5 14q-37 0 -58 -13t-21 -36
q0 -17 12.5 -27t44.5 -18l85 -19q78 -18 113 -54t35 -96q0 -72 -57.5 -114t-158.5 -42zM326 -67v-64q0 -44 -13 -79.5t-47 -66.5l-55 37q22 20 29.5 40t7.5 43l33 -24h-105v114h150z" />
    <glyph glyph-name="uni021A" unicode="&#x21a;" horiz-adv-x="628" 
d="M235 0v585h-223v127h604v-127h-223v-585h-158zM388 -67v-64q0 -44 -13 -79.5t-47 -66.5l-55 37q22 20 29.5 40t7.5 43l33 -24h-105v114h150z" />
    <glyph glyph-name="uni021B" unicode="&#x21b;" horiz-adv-x="396" 
d="M4 394v113h376v-113h-376zM380 122v-116q-21 -8 -42 -11t-45 -3q-94 0 -143.5 53.5t-49.5 148.5v432l151 49v-478q0 -30 11 -48t29 -25.5t39 -7.5q12 0 23.5 1.5t26.5 4.5zM324 -67v-64q0 -44 -13 -79.5t-47 -66.5l-55 37q22 20 29.5 40t7.5 43l33 -24h-105v114h150z" />
    <glyph glyph-name="uni0227" unicode="&#x227;" horiz-adv-x="630" 
d="M260 -8q-66 0 -117 32t-79 91t-28 138t28.5 139.5t79 94t116.5 33.5q61 0 108 -30t64 -81l-12 -8v106h149v-507h-149v104l12 -2q-17 -52 -64 -81t-108 -29zM304 107q55 0 85.5 38t30.5 110t-30.5 110.5t-85.5 38.5t-86.5 -40t-31.5 -111t30.5 -108.5t87.5 -37.5zM233 745
h163v-142h-163v142z" />
    <glyph glyph-name="uni0228" unicode="&#x228;" horiz-adv-x="599" 
d="M71 0v712h491v-121h-338v-168h317v-122h-317v-180h338v-121h-491zM319 -199q-21 0 -47.5 4.5t-47.5 13.5l12 59q24 -7 43 -10.5t35 -3.5q21 0 34 6t13 20q0 20 -33 20q-9 0 -19 -2t-17 -5l-20 21l13 96h81l-11 -76l-37 7q11 4 26 6.5t26 2.5q39 0 62 -19t23 -51
q0 -38 -34.5 -63.5t-101.5 -25.5z" />
    <glyph glyph-name="uni022A" unicode="&#x22a;" horiz-adv-x="795" 
d="M398 -9q-107 0 -185 45t-120.5 127t-42.5 194q0 111 42.5 193t120.5 126.5t185 44.5t184.5 -44.5t119.5 -126.5t42 -193q0 -112 -42 -194t-119.5 -127t-184.5 -45zM398 112q88 0 139.5 62.5t51.5 182.5t-51.5 181.5t-139.5 61.5q-89 0 -140 -61.5t-51 -181.5
q0 -121 51 -183t140 -62zM423 918h139v-132h-139v132zM231 918h139v-132h-139v132zM239 966v95h315v-95h-315z" />
    <glyph glyph-name="uni022B" unicode="&#x22b;" horiz-adv-x="604" 
d="M303 -8q-82 0 -142 32t-92.5 91.5t-32.5 140.5t32.5 140t92.5 91.5t142 32.5q80 0 140 -32.5t92.5 -91.5t32.5 -140t-32.5 -140.5t-92.5 -91.5t-140 -32zM303 107q55 0 85 36.5t30 112.5q0 75 -30 111.5t-85 36.5q-56 0 -86.5 -36.5t-30.5 -111.5q0 -76 30 -112.5
t87 -36.5zM329 740h139v-133h-139v133zM137 740h139v-133h-139v133zM145 818v95h315v-95h-315z" />
    <glyph glyph-name="uni022C" unicode="&#x22c;" horiz-adv-x="795" 
d="M398 -9q-107 0 -185 45t-120.5 127t-42.5 194q0 111 42.5 193t120.5 126.5t185 44.5t184.5 -44.5t119.5 -126.5t42 -193q0 -112 -42 -194t-119.5 -127t-184.5 -45zM398 112q88 0 139.5 62.5t51.5 182.5t-51.5 181.5t-139.5 61.5q-89 0 -140 -61.5t-51 -181.5
q0 -121 51 -183t140 -62zM221 780q0 76 32 111.5t77 35.5q26 0 49.5 -13t44.5 -26.5t40 -13.5q18 0 30 13t14 37h64q0 -77 -32 -112t-77 -35q-26 0 -49.5 13t-44.5 26t-40 13q-18 0 -30 -13t-14 -36h-64zM239 966v95h315v-95h-315z" />
    <glyph glyph-name="uni022D" unicode="&#x22d;" horiz-adv-x="604" 
d="M303 -8q-82 0 -142 32t-92.5 91.5t-32.5 140.5t32.5 140t92.5 91.5t142 32.5q80 0 140 -32.5t92.5 -91.5t32.5 -140t-32.5 -140.5t-92.5 -91.5t-140 -32zM303 107q55 0 85 36.5t30 112.5q0 75 -30 111.5t-85 36.5q-56 0 -86.5 -36.5t-30.5 -111.5q0 -76 30 -112.5
t87 -36.5zM127 604q0 76 32 111t77 35q26 0 49.5 -13t44.5 -26t40 -13q18 0 30 13t14 36h64q0 -76 -32 -111t-77 -35q-26 0 -49.5 13t-44.5 26t-40 13q-18 0 -30 -13t-14 -36h-64zM145 818v95h315v-95h-315z" />
    <glyph glyph-name="uni0230" unicode="&#x230;" horiz-adv-x="795" 
d="M398 -9q-107 0 -185 45t-120.5 127t-42.5 194q0 111 42.5 193t120.5 126.5t185 44.5t184.5 -44.5t119.5 -126.5t42 -193q0 -112 -42 -194t-119.5 -127t-184.5 -45zM398 112q88 0 139.5 62.5t51.5 182.5t-51.5 181.5t-139.5 61.5q-89 0 -140 -61.5t-51 -181.5
q0 -121 51 -183t140 -62zM315 923h163v-142h-163v142zM239 966v95h315v-95h-315z" />
    <glyph glyph-name="uni0231" unicode="&#x231;" horiz-adv-x="604" 
d="M303 -8q-82 0 -142 32t-92.5 91.5t-32.5 140.5t32.5 140t92.5 91.5t142 32.5q80 0 140 -32.5t92.5 -91.5t32.5 -140t-32.5 -140.5t-92.5 -91.5t-140 -32zM303 107q55 0 85 36.5t30 112.5q0 75 -30 111.5t-85 36.5q-56 0 -86.5 -36.5t-30.5 -111.5q0 -76 30 -112.5
t87 -36.5zM221 745h163v-142h-163v142zM145 818v95h315v-95h-315z" />
    <glyph glyph-name="uni0232" unicode="&#x232;" horiz-adv-x="642" 
d="M242 0v320l33 -90l-326 482h177l215 -337h-42l217 337h178l-326 -482l31 90v-320h-157zM163 804v95h315v-95h-315z" />
    <glyph glyph-name="uni0233" unicode="&#x233;" horiz-adv-x="551" 
d="M58 -228l-35 116q47 9 77.5 22.5t50.5 33.5t33 49l39 87l40 59l149 368h149l-233 -533q-31 -70 -71 -111t-90 -62t-109 -29zM227 -38l-237 545h157l146 -368zM117 626v95h315v-95h-315z" />
    <glyph glyph-name="uni0237" unicode="&#x237;" horiz-adv-x="274" 
d="M-65 -93q15 -4 26 -5.5t23 -1.5q21 0 39 8t28 26t10 48v525h151v-529q0 -95 -48.5 -148.5t-142.5 -53.5q-22 0 -44 3t-42 10v118z" />
    <glyph glyph-name="uni0259" unicode="&#x259;" horiz-adv-x="550" 
d="M43 456q39 31 94.5 47.5t113.5 16.5q80 0 139 -32.5t91.5 -92t32.5 -139.5q0 -79 -30 -138.5t-84.5 -92.5t-126.5 -33q-110 0 -174 68t-64 188v23h345v-77h-256l42 32q0 -63 25.5 -96.5t75.5 -33.5q52 0 79.5 39.5t25.5 114.5q-2 82 -33.5 119t-97.5 37q-38 0 -76.5 -13
t-80.5 -38z" />
    <glyph glyph-name="uni02BB" unicode="&#x2bb;" horiz-adv-x="300" 
d="M76 590v64q0 45 12.5 81t47.5 66l55 -37q-22 -21 -29.5 -41.5t-7.5 -42.5l-33 24h105v-114h-150z" />
    <glyph glyph-name="uni02BC" unicode="&#x2bc;" horiz-adv-x="300" 
d="M224 767v-65q0 -45 -12.5 -80t-47.5 -67l-55 39q22 19 29.5 39.5t7.5 43.5l33 -25h-105v115h150z" />
    <glyph glyph-name="uni02BE" unicode="&#x2be;" horiz-adv-x="300" 
d="M152 773q30 0 55.5 -14.5t40 -39t14.5 -54.5q0 -47 -32 -78t-78 -31v62q19 0 31 13.5t12 33.5q0 19 -12 32t-31 13v63z" />
    <glyph glyph-name="uni02BF" unicode="&#x2bf;" horiz-adv-x="300" 
d="M152 773v-63q-20 0 -32 -13t-12 -32q0 -20 12 -33.5t32 -13.5v-62q-47 0 -79 31t-32 78q0 45 32 76.5t79 31.5z" />
    <glyph glyph-name="circumflex" unicode="&#x2c6;" horiz-adv-x="300" 
d="M93 561h-118l131 206h91l131 -206h-118l-58 117z" />
    <glyph glyph-name="caron" unicode="&#x2c7;" horiz-adv-x="300" 
d="M210 767h118l-131 -206h-91l-131 206h118l59 -118z" />
    <glyph glyph-name="uni02C8" unicode="&#x2c8;" horiz-adv-x="300" 
d="M104 561v206h95v-206h-95z" />
    <glyph glyph-name="uni02C9" unicode="&#x2c9;" horiz-adv-x="300" 
d="M-6 615v95h315v-95h-315z" />
    <glyph glyph-name="uni02CA" unicode="&#x2ca;" horiz-adv-x="300" 
d="M198 561h-93l98 206h149z" />
    <glyph glyph-name="uni02CB" unicode="&#x2cb;" horiz-adv-x="300" 
d="M105 561l-154 206h149l98 -206h-93z" />
    <glyph glyph-name="uni02CC" unicode="&#x2cc;" horiz-adv-x="300" 
d="M104 -273v207h95v-207h-95z" />
    <glyph glyph-name="breve" unicode="&#x2d8;" horiz-adv-x="300" 
d="M152 583q-41 0 -79.5 15.5t-67 48t-40.5 82.5l69 30q24 -44 54 -62t64 -18q33 0 63 18t54 62l69 -30q-12 -50 -40 -82.5t-66.5 -48t-79.5 -15.5z" />
    <glyph glyph-name="dotaccent" unicode="&#x2d9;" horiz-adv-x="300" 
d="M70 734h163v-142h-163v142z" />
    <glyph glyph-name="ring" unicode="&#x2da;" horiz-adv-x="300" 
d="M152 556q-47 0 -79 31t-32 78q0 45 32 76.5t79 31.5q30 0 55.5 -14.5t40 -39t14.5 -54.5q0 -47 -32 -78t-78 -31zM152 618q19 0 31 13t12 34q0 19 -12 32t-31 13q-20 0 -32 -13t-12 -32q0 -20 12 -33.5t32 -13.5z" />
    <glyph glyph-name="ogonek" unicode="&#x2db;" horiz-adv-x="300" 
d="M111 -199q-54 0 -91 30t-37 81q0 49 37.5 86.5t113.5 47.5l18 -36q-35 -10 -53.5 -29t-18.5 -47q0 -27 16 -40.5t44 -13.5q14 0 27.5 3.5t27.5 9.5l17 -71q-22 -10 -47.5 -15.5t-53.5 -5.5z" />
    <glyph glyph-name="tilde" unicode="&#x2dc;" horiz-adv-x="300" 
d="M-24 593q0 76 32 111t77 35q26 0 49.5 -13t44.5 -26t40 -13q18 0 30 13t14 36h64q0 -76 -32 -111t-77 -35q-26 0 -49.5 13t-44.5 26t-40 13q-18 0 -30 -13t-14 -36h-64z" />
    <glyph glyph-name="hungarumlaut" unicode="&#x2dd;" horiz-adv-x="300" 
d="M114 561h-65l35 206h109zM254 561h-65l34 206h110z" />
    <glyph glyph-name="gravecomb" unicode="&#x300;" 
d="M105 561l-154 206h149l98 -206h-93z" />
    <glyph glyph-name="acutecomb" unicode="&#x301;" 
d="M198 561h-93l98 206h149z" />
    <glyph glyph-name="uni0302" unicode="&#x302;" 
d="M93 561h-118l131 206h91l131 -206h-118l-58 117z" />
    <glyph glyph-name="tildecomb" unicode="&#x303;" 
d="M-24 593q0 76 32 111t77 35q26 0 49.5 -13t44.5 -26t40 -13q18 0 30 13t14 36h64q0 -76 -32 -111t-77 -35q-26 0 -49.5 13t-44.5 26t-40 13q-18 0 -30 -13t-14 -36h-64z" />
    <glyph glyph-name="uni0304" unicode="&#x304;" 
d="M-6 615v95h315v-95h-315z" />
    <glyph glyph-name="uni0306" unicode="&#x306;" 
d="M152 583q-41 0 -79.5 15.5t-67 48t-40.5 82.5l69 30q24 -44 54 -62t64 -18q33 0 63 18t54 62l69 -30q-12 -50 -40 -82.5t-66.5 -48t-79.5 -15.5z" />
    <glyph glyph-name="uni0307" unicode="&#x307;" 
d="M70 734h163v-142h-163v142z" />
    <glyph glyph-name="uni0308" unicode="&#x308;" 
d="M178 729h139v-133h-139v133zM-14 729h139v-133h-139v133z" />
    <glyph glyph-name="hookabovecomb" unicode="&#x309;" 
d="M191 582v-21h-76v25q0 20 9 33.5t21 23.5t20.5 18.5t8.5 18.5q0 11 -8.5 17t-25.5 6q-11 0 -23 -2t-27 -7l-20 57q23 11 44.5 15t41.5 4q58 0 87 -23t29 -53q0 -24 -12 -39t-28 -26t-28.5 -21.5t-12.5 -25.5z" />
    <glyph glyph-name="uni030A" unicode="&#x30a;" 
d="M152 556q-47 0 -79 31t-32 78q0 45 32 76.5t79 31.5q30 0 55.5 -14.5t40 -39t14.5 -54.5q0 -47 -32 -78t-78 -31zM152 618q19 0 31 13t12 34q0 19 -12 32t-31 13q-20 0 -32 -13t-12 -32q0 -20 12 -33.5t32 -13.5z" />
    <glyph glyph-name="uni030B" unicode="&#x30b;" 
d="M114 561h-65l35 206h109zM254 561h-65l34 206h110z" />
    <glyph glyph-name="uni030C" unicode="&#x30c;" 
d="M210 767h118l-131 -206h-91l-131 206h118l59 -118z" />
    <glyph glyph-name="uni030F" unicode="&#x30f;" 
d="M189 561l-79 206h109l35 -206h-65zM49 561l-79 206h110l34 -206h-65z" />
    <glyph glyph-name="uni0311" unicode="&#x311;" 
d="M152 755q41 0 79 -16t66.5 -48t40.5 -82l-69 -29q-24 43 -54 61.5t-63 18.5q-34 0 -64 -18.5t-54 -61.5l-69 29q12 50 40.5 82t67 48t79.5 16z" />
    <glyph glyph-name="uni0312" unicode="&#x312;" 
d="M76 590v64q0 45 12.5 81t47.5 66l55 -37q-22 -21 -29.5 -41.5t-7.5 -42.5l-33 24h105v-114h-150z" />
    <glyph glyph-name="uni031B" unicode="&#x31b;" 
d="M240 427l-88 55v18q31 0 51.5 8t30.5 30.5t10 63.5v20h131v-38q0 -63 -37 -106.5t-98 -50.5z" />
    <glyph glyph-name="dotbelowcomb" unicode="&#x323;" 
d="M82 -68h139v-133h-139v133z" />
    <glyph glyph-name="uni0324" unicode="&#x324;" 
d="M178 -68h139v-133h-139v133zM-14 -68h139v-133h-139v133z" />
    <glyph glyph-name="uni0326" unicode="&#x326;" 
d="M226 -67v-64q0 -44 -13 -79.5t-47 -66.5l-55 37q22 20 29.5 40t7.5 43l33 -24h-105v114h150z" />
    <glyph glyph-name="uni0327" unicode="&#x327;" 
d="M138 -199q-21 0 -47.5 4.5t-47.5 13.5l12 59q24 -7 43 -10.5t35 -3.5q21 0 34 6t13 20q0 20 -33 20q-9 0 -19 -2t-17 -5l-20 21l13 96h81l-11 -76l-37 7q11 4 26 6.5t26 2.5q39 0 62 -19t23 -51q0 -38 -34.5 -63.5t-101.5 -25.5z" />
    <glyph glyph-name="uni0328" unicode="&#x328;" 
d="M111 -199q-54 0 -91 30t-37 81q0 49 37.5 86.5t113.5 47.5l18 -36q-35 -10 -53.5 -29t-18.5 -47q0 -27 16 -40.5t44 -13.5q14 0 27.5 3.5t27.5 9.5l17 -71q-22 -10 -47.5 -15.5t-53.5 -5.5z" />
    <glyph glyph-name="uni032E" unicode="&#x32e;" 
d="M152 -228q-41 0 -79.5 15t-67 47.5t-40.5 82.5l69 29q24 -43 54 -61t64 -18q33 0 63 18t54 61l69 -29q-12 -50 -40 -82.5t-66.5 -47.5t-79.5 -15z" />
    <glyph glyph-name="uni0331" unicode="&#x331;" 
d="M-6 -179v89h315v-89h-315z" />
    <glyph glyph-name="uni0335" unicode="&#x335;" 
d="M-6 208v85h315v-85h-315z" />
    <glyph glyph-name="uni0394" unicode="&#x394;" horiz-adv-x="757" 
d="M31 0v108l287 604h122l286 -604v-108h-695zM170 77l-27 51h473l-27 -51l-225 506h34z" />
    <glyph glyph-name="Sigma" unicode="&#x3a3;" horiz-adv-x="611" 
d="M565 -57v-125h-520v113l266 370v-72l-266 370v113h520v-125h-375v45l231 -318l-1 -97l-230 -319v45h375z" />
    <glyph glyph-name="uni03A9" unicode="&#x3a9;" horiz-adv-x="819" 
d="M410 722q109 0 190.5 -38t126.5 -107.5t45 -161.5q0 -91 -53 -175t-158 -159l31 44h166v-125h-292v121q78 71 114 140t36 149q0 89 -55 139.5t-151 50.5q-97 0 -152 -50.5t-55 -139.5q0 -80 37 -149.5t115 -139.5v-121h-293v125h165l32 -44q-105 75 -158.5 159t-53.5 175
q0 92 45.5 161.5t127 107.5t190.5 38z" />
    <glyph glyph-name="uni03BC" unicode="&#x3bc;" horiz-adv-x="606" 
d="M545 507v-507h-147v101l13 -1q-22 -53 -64.5 -80.5t-99.5 -27.5q-20 0 -35 3t-32 8l29 41v-260h-151v723h151v-305q0 -47 19.5 -69.5t60.5 -22.5q46 0 75 32t29 85v280h152z" />
    <glyph glyph-name="pi" unicode="&#x3c0;" horiz-adv-x="634" 
d="M189 0l-155 -1q23 81 39.5 154.5t25.5 147t9 153.5h150q0 -76 -4.5 -148t-19.5 -147t-45 -159zM4 394v113h593v-113h-593zM339 453h151v-265q0 -41 19.5 -60.5t64.5 -22.5l53 -4l-11 -110l-50 3q-82 5 -132 28t-72.5 69.5t-22.5 121.5v240z" />
    <glyph glyph-name="uni1E08" unicode="&#x1e08;" horiz-adv-x="685" 
d="M405 -9q-109 0 -189 45t-123 127.5t-43 193.5q0 110 43 192t123 127t189 45q71 0 135 -21.5t106 -60.5l-49 -112q-48 36 -93.5 52.5t-95.5 16.5q-95 0 -147 -60.5t-52 -178.5t52 -179.5t147 -61.5q50 0 95.5 16.5t93.5 52.5l49 -112q-42 -39 -106 -60.5t-135 -21.5z
M384 -199q-21 0 -47.5 4.5t-47.5 13.5l12 59q24 -7 43 -10.5t35 -3.5q21 0 34 6t13 20q0 20 -33 20q-9 0 -19 -2t-17 -5l-20 21l13 96h81l-11 -76l-37 7q11 4 26 6.5t26 2.5q39 0 62 -19t23 -51q0 -38 -34.5 -63.5t-101.5 -25.5zM444 773h-93l103 157h140z" />
    <glyph glyph-name="uni1E09" unicode="&#x1e09;" horiz-adv-x="509" 
d="M301 -8q-82 0 -142 32t-91.5 90.5t-31.5 138.5t34 140t95 93.5t143 33.5q54 0 106 -17t84 -46l-40 -105q-30 24 -66 37.5t-70 13.5q-61 0 -96 -37t-35 -110q0 -74 34.5 -111t96.5 -37q34 0 70 13t66 38l40 -105q-33 -29 -86 -45.5t-111 -16.5zM280 -199q-21 0 -47.5 4.5
t-47.5 13.5l12 59q24 -7 43 -10.5t35 -3.5q21 0 34 6t13 20q0 20 -33 20q-9 0 -19 -2t-17 -5l-20 21l13 96h81l-11 -76l-37 7q11 4 26 6.5t26 2.5q39 0 62 -19t23 -51q0 -38 -34.5 -63.5t-101.5 -25.5zM349 572h-93l98 206h149z" />
    <glyph glyph-name="uni1E0C" unicode="&#x1e0c;" horiz-adv-x="771" 
d="M71 0v712h276q117 0 200.5 -42t128 -121.5t44.5 -191.5q0 -113 -44 -192.5t-127.5 -122t-201.5 -42.5h-276zM227 126h109q114 0 171 57.5t57 173.5q0 229 -228 229h-109v-460zM315 -68h139v-133h-139v133z" />
    <glyph glyph-name="uni1E0D" unicode="&#x1e0d;" horiz-adv-x="630" 
d="M569 0h-149v124l12 -22q-17 -52 -64 -81t-108 -29q-66 0 -116.5 33.5t-79 93t-28.5 139.5q0 79 28 138t79 91.5t117 32.5q61 0 108 -30.5t64 -80.5l-14 -18v345h151v-736zM304 107q55 0 85.5 38t30.5 111q0 70 -30.5 109t-85.5 39q-57 0 -87.5 -38t-30.5 -108
q0 -73 31.5 -112t86.5 -39zM246 -68h139v-133h-139v133z" />
    <glyph glyph-name="uni1E0E" unicode="&#x1e0e;" horiz-adv-x="771" 
d="M71 0v712h276q117 0 200.5 -42t128 -121.5t44.5 -191.5q0 -113 -44 -192.5t-127.5 -122t-201.5 -42.5h-276zM227 126h109q114 0 171 57.5t57 173.5q0 229 -228 229h-109v-460zM227 -179v89h315v-89h-315z" />
    <glyph glyph-name="uni1E0F" unicode="&#x1e0f;" horiz-adv-x="630" 
d="M569 0h-149v124l12 -22q-17 -52 -64 -81t-108 -29q-66 0 -116.5 33.5t-79 93t-28.5 139.5q0 79 28 138t79 91.5t117 32.5q61 0 108 -30.5t64 -80.5l-14 -18v345h151v-736zM304 107q55 0 85.5 38t30.5 111q0 70 -30.5 109t-85.5 39q-57 0 -87.5 -38t-30.5 -108
q0 -73 31.5 -112t86.5 -39zM158 -179v89h315v-89h-315z" />
    <glyph glyph-name="uni1E14" unicode="&#x1e14;" horiz-adv-x="599" 
d="M71 0v712h491v-121h-338v-168h317v-122h-317v-180h338v-121h-491zM175 804v95h315v-95h-315zM286 935l-150 157h140l103 -157h-93z" />
    <glyph glyph-name="uni1E15" unicode="&#x1e15;" horiz-adv-x="550" 
d="M507 54q-37 -29 -90 -45.5t-107 -16.5q-85 0 -146.5 32t-94.5 91t-33 140q0 78 32 138t87.5 93.5t129.5 33.5q71 0 123 -31.5t80 -89t28 -136.5v-22h-347l2 75h255l-39 -31q1 64 -24.5 96.5t-73.5 32.5q-52 0 -80.5 -37.5t-28.5 -109.5q0 -85 33.5 -123t102.5 -38
q40 0 79 13t72 37zM127 626v95h315v-95h-315zM238 764l-154 206h149l98 -206h-93z" />
    <glyph glyph-name="uni1E16" unicode="&#x1e16;" horiz-adv-x="599" 
d="M71 0v712h491v-121h-338v-168h317v-122h-317v-180h338v-121h-491zM175 804v95h315v-95h-315zM379 935h-93l103 157h140z" />
    <glyph glyph-name="uni1E17" unicode="&#x1e17;" horiz-adv-x="550" 
d="M507 54q-37 -29 -90 -45.5t-107 -16.5q-85 0 -146.5 32t-94.5 91t-33 140q0 78 32 138t87.5 93.5t129.5 33.5q71 0 123 -31.5t80 -89t28 -136.5v-22h-347l2 75h255l-39 -31q1 64 -24.5 96.5t-73.5 32.5q-52 0 -80.5 -37.5t-28.5 -109.5q0 -85 33.5 -123t102.5 -38
q40 0 79 13t72 37zM127 626v95h315v-95h-315zM331 764h-93l98 206h149z" />
    <glyph glyph-name="uni1E1C" unicode="&#x1e1c;" horiz-adv-x="599" 
d="M71 0v712h491v-121h-338v-168h317v-122h-317v-180h338v-121h-491zM319 -199q-21 0 -47.5 4.5t-47.5 13.5l12 59q24 -7 43 -10.5t35 -3.5q21 0 34 6t13 20q0 20 -33 20q-9 0 -19 -2t-17 -5l-20 21l13 96h81l-11 -76l-37 7q11 4 26 6.5t26 2.5q39 0 62 -19t23 -51
q0 -38 -34.5 -63.5t-101.5 -25.5zM333 782q-64 0 -112 27.5t-68 82.5l70 30q18 -29 47 -39.5t63 -10.5q33 0 62 10.5t47 39.5l70 -30q-20 -55 -68 -82.5t-111 -27.5z" />
    <glyph glyph-name="uni1E1D" unicode="&#x1e1d;" horiz-adv-x="550" 
d="M507 54q-37 -29 -90 -45.5t-107 -16.5q-85 0 -146.5 32t-94.5 91t-33 140q0 78 32 138t87.5 93.5t129.5 33.5q71 0 123 -31.5t80 -89t28 -136.5v-22h-347l2 75h255l-39 -31q1 64 -24.5 96.5t-73.5 32.5q-52 0 -80.5 -37.5t-28.5 -109.5q0 -85 33.5 -123t102.5 -38
q40 0 79 13t72 37zM292 -199q-21 0 -47.5 4.5t-47.5 13.5l12 59q24 -7 43 -10.5t35 -3.5q21 0 34 6t13 20q0 20 -33 20q-9 0 -19 -2t-17 -5l-20 21l13 96h81l-11 -76l-37 7q11 4 26 6.5t26 2.5q39 0 62 -19t23 -51q0 -38 -34.5 -63.5t-101.5 -25.5zM285 594
q-41 0 -79.5 15.5t-67 48t-40.5 82.5l69 30q24 -44 54 -62t64 -18q33 0 63 18t54 62l69 -30q-12 -50 -40 -82.5t-66.5 -48t-79.5 -15.5z" />
    <glyph glyph-name="uni1E20" unicode="&#x1e20;" horiz-adv-x="745" 
d="M418 -9q-114 0 -196.5 44t-127 126t-44.5 196q0 112 44.5 194t125.5 126t191 44q76 0 143 -21t110 -59l-50 -112q-51 36 -97.5 52t-101.5 16q-103 0 -154.5 -60t-51.5 -180q0 -123 53.5 -184.5t162.5 -61.5q38 0 76.5 6.5t74.5 19.5l-34 -51v198h-140v109h281v-349
q-35 -17 -78.5 -29t-91 -18t-95.5 -6zM253 804v95h315v-95h-315z" />
    <glyph glyph-name="uni1E21" unicode="&#x1e21;" horiz-adv-x="634" 
d="M300 -224q-120 0 -210 47l23 112q45 -23 91 -34t91 -11q65 0 97 30t32 92v117l12 -6q-12 -28 -37 -53t-60.5 -40.5t-76.5 -15.5q-66 0 -117 31.5t-80 88.5t-29 133t29 132.5t80 88.5t117 32q62 0 109.5 -30.5t64.5 -80.5l-12 -9v107h150v-483q0 -122 -69.5 -185
t-204.5 -63zM306 129q55 0 86.5 36.5t31.5 101.5q0 63 -31 100t-87 37t-88 -36.5t-32 -100.5t32.5 -101t87.5 -37zM160 626v95h315v-95h-315z" />
    <glyph glyph-name="uni1E24" unicode="&#x1e24;" horiz-adv-x="779" 
d="M554 0v712h153v-712h-153zM71 0v712h153v-712h-153zM121 300v123h525v-123h-525zM319 -68h139v-133h-139v133z" />
    <glyph glyph-name="uni1E25" unicode="&#x1e25;" horiz-adv-x="612" 
d="M61 0v736h151v-332l-17 5q26 54 72.5 82.5t107.5 28.5q179 0 179 -213v-307h-151v300q0 54 -19.5 78t-61.5 24q-50 0 -80 -32t-30 -86v-284h-151zM238 -68h139v-133h-139v133z" />
    <glyph glyph-name="uni1E2A" unicode="&#x1e2a;" horiz-adv-x="779" 
d="M554 0v712h153v-712h-153zM71 0v712h153v-712h-153zM121 300v123h525v-123h-525zM389 -228q-41 0 -79.5 15t-67 47.5t-40.5 82.5l69 29q24 -43 54 -61t64 -18q33 0 63 18t54 61l69 -29q-12 -50 -40 -82.5t-66.5 -47.5t-79.5 -15z" />
    <glyph glyph-name="uni1E2B" unicode="&#x1e2b;" horiz-adv-x="612" 
d="M61 0v736h151v-332l-17 5q26 54 72.5 82.5t107.5 28.5q179 0 179 -213v-307h-151v300q0 54 -19.5 78t-61.5 24q-50 0 -80 -32t-30 -86v-284h-151zM308 -228q-41 0 -79.5 15t-67 47.5t-40.5 82.5l69 29q24 -43 54 -61t64 -18q33 0 63 18t54 61l69 -29q-12 -50 -40 -82.5
t-66.5 -47.5t-79.5 -15z" />
    <glyph glyph-name="uni1E2E" unicode="&#x1e2e;" horiz-adv-x="299" 
d="M71 0v712h156v-712h-156zM175 918h139v-132h-139v132zM-17 918h139v-132h-139v132zM195 935h-93l103 157h140z" />
    <glyph glyph-name="uni1E2F" unicode="&#x1e2f;" horiz-adv-x="274" 
d="M61 0v507h151v-507h-151zM163 740h139v-133h-139v133zM-29 740h139v-133h-139v133zM183 764h-93l98 206h149z" />
    <glyph glyph-name="uni1E36" unicode="&#x1e36;" horiz-adv-x="569" 
d="M71 0v712h156v-585h318v-127h-474zM246 -68h139v-133h-139v133z" />
    <glyph glyph-name="uni1E37" unicode="&#x1e37;" horiz-adv-x="274" 
d="M61 0v736h151v-736h-151zM67 -68h139v-133h-139v133z" />
    <glyph glyph-name="uni1E3A" unicode="&#x1e3a;" horiz-adv-x="569" 
d="M71 0v712h156v-585h318v-127h-474zM158 -179v89h315v-89h-315z" />
    <glyph glyph-name="uni1E3B" unicode="&#x1e3b;" horiz-adv-x="274" 
d="M61 0v736h151v-736h-151zM-21 -179v89h315v-89h-315z" />
    <glyph glyph-name="uni1E42" unicode="&#x1e42;" horiz-adv-x="851" 
d="M73 0v712h124l257 -587h-55l256 587h123v-712h-138l-1 481l36 -9l-199 -472h-101l-203 472l38 9v-481h-137zM355 -68h139v-133h-139v133z" />
    <glyph glyph-name="uni1E43" unicode="&#x1e43;" horiz-adv-x="911" 
d="M61 0v362q0 36 -1.5 72.5t-6.5 72.5h142l11 -99l-11 4q21 51 64.5 79.5t104.5 28.5q69 0 109.5 -35.5t53.5 -107.5l-24 27q22 52 70 84t109 32q87 0 129 -53t42 -160v-307h-151v302q0 52 -17 76t-56 24q-45 0 -71 -32.5t-26 -90.5v-279h-151v302q0 52 -17 76t-55 24
q-46 0 -71.5 -32.5t-25.5 -90.5v-279h-151zM388 -68h139v-133h-139v133z" />
    <glyph glyph-name="uni1E44" unicode="&#x1e44;" horiz-adv-x="760" 
d="M71 0v712h115l384 -490l-29 -19v509h147v-712h-116l-382 488l27 21v-509h-146zM297 923h163v-142h-163v142z" />
    <glyph glyph-name="uni1E45" unicode="&#x1e45;" horiz-adv-x="612" 
d="M61 0v362q0 36 -1.5 72.5t-6.5 72.5h142l11 -99l-11 1q26 54 72.5 82.5t107.5 28.5q179 0 179 -213v-307h-151v300q0 54 -19.5 78t-61.5 24q-50 0 -80 -32t-30 -86v-284h-151zM226 745h163v-142h-163v142z" />
    <glyph glyph-name="uni1E46" unicode="&#x1e46;" horiz-adv-x="760" 
d="M71 0v712h115l384 -490l-29 -19v509h147v-712h-116l-382 488l27 21v-509h-146zM310 -68h139v-133h-139v133z" />
    <glyph glyph-name="uni1E47" unicode="&#x1e47;" horiz-adv-x="612" 
d="M61 0v362q0 36 -1.5 72.5t-6.5 72.5h142l11 -99l-11 1q26 54 72.5 82.5t107.5 28.5q179 0 179 -213v-307h-151v300q0 54 -19.5 78t-61.5 24q-50 0 -80 -32t-30 -86v-284h-151zM238 -68h139v-133h-139v133z" />
    <glyph glyph-name="uni1E48" unicode="&#x1e48;" horiz-adv-x="760" 
d="M71 0v712h115l384 -490l-29 -19v509h147v-712h-116l-382 488l27 21v-509h-146zM222 -179v89h315v-89h-315z" />
    <glyph glyph-name="uni1E49" unicode="&#x1e49;" horiz-adv-x="612" 
d="M61 0v362q0 36 -1.5 72.5t-6.5 72.5h142l11 -99l-11 1q26 54 72.5 82.5t107.5 28.5q179 0 179 -213v-307h-151v300q0 54 -19.5 78t-61.5 24q-50 0 -80 -32t-30 -86v-284h-151zM150 -179v89h315v-89h-315z" />
    <glyph glyph-name="uni1E4C" unicode="&#x1e4c;" horiz-adv-x="795" 
d="M398 -9q-107 0 -185 45t-120.5 127t-42.5 194q0 111 42.5 193t120.5 126.5t185 44.5t184.5 -44.5t119.5 -126.5t42 -193q0 -112 -42 -194t-119.5 -127t-184.5 -45zM398 112q88 0 139.5 62.5t51.5 182.5t-51.5 181.5t-139.5 61.5q-89 0 -140 -61.5t-51 -181.5
q0 -121 51 -183t140 -62zM221 780q0 76 32 111.5t77 35.5q26 0 49.5 -13t44.5 -26.5t40 -13.5q18 0 30 13t14 37h64q0 -77 -32 -112t-77 -35q-26 0 -49.5 13t-44.5 26t-40 13q-18 0 -30 -13t-14 -36h-64zM443 935h-93l103 157h140z" />
    <glyph glyph-name="uni1E4D" unicode="&#x1e4d;" horiz-adv-x="604" 
d="M303 -8q-82 0 -142 32t-92.5 91.5t-32.5 140.5t32.5 140t92.5 91.5t142 32.5q80 0 140 -32.5t92.5 -91.5t32.5 -140t-32.5 -140.5t-92.5 -91.5t-140 -32zM303 107q55 0 85 36.5t30 112.5q0 75 -30 111.5t-85 36.5q-56 0 -86.5 -36.5t-30.5 -111.5q0 -76 30 -112.5
t87 -36.5zM127 604q0 76 32 111t77 35q26 0 49.5 -13t44.5 -26t40 -13q18 0 30 13t14 36h64q0 -76 -32 -111t-77 -35q-26 0 -49.5 13t-44.5 26t-40 13q-18 0 -30 -13t-14 -36h-64zM349 764h-93l98 206h149z" />
    <glyph glyph-name="uni1E4E" unicode="&#x1e4e;" horiz-adv-x="795" 
d="M398 -9q-107 0 -185 45t-120.5 127t-42.5 194q0 111 42.5 193t120.5 126.5t185 44.5t184.5 -44.5t119.5 -126.5t42 -193q0 -112 -42 -194t-119.5 -127t-184.5 -45zM398 112q88 0 139.5 62.5t51.5 182.5t-51.5 181.5t-139.5 61.5q-89 0 -140 -61.5t-51 -181.5
q0 -121 51 -183t140 -62zM221 780q0 76 32 111.5t77 35.5q26 0 49.5 -13t44.5 -26.5t40 -13.5q18 0 30 13t14 37h64q0 -77 -32 -112t-77 -35q-26 0 -49.5 13t-44.5 26t-40 13q-18 0 -30 -13t-14 -36h-64zM423 1080h139v-132h-139v132zM231 1080h139v-132h-139v132z" />
    <glyph glyph-name="uni1E4F" unicode="&#x1e4f;" horiz-adv-x="604" 
d="M303 -8q-82 0 -142 32t-92.5 91.5t-32.5 140.5t32.5 140t92.5 91.5t142 32.5q80 0 140 -32.5t92.5 -91.5t32.5 -140t-32.5 -140.5t-92.5 -91.5t-140 -32zM303 107q55 0 85 36.5t30 112.5q0 75 -30 111.5t-85 36.5q-56 0 -86.5 -36.5t-30.5 -111.5q0 -76 30 -112.5
t87 -36.5zM127 604q0 76 32 111t77 35q26 0 49.5 -13t44.5 -26t40 -13q18 0 30 13t14 36h64q0 -76 -32 -111t-77 -35q-26 0 -49.5 13t-44.5 26t-40 13q-18 0 -30 -13t-14 -36h-64zM329 932h139v-133h-139v133zM137 932h139v-133h-139v133z" />
    <glyph glyph-name="uni1E50" unicode="&#x1e50;" horiz-adv-x="795" 
d="M398 -9q-107 0 -185 45t-120.5 127t-42.5 194q0 111 42.5 193t120.5 126.5t185 44.5t184.5 -44.5t119.5 -126.5t42 -193q0 -112 -42 -194t-119.5 -127t-184.5 -45zM398 112q88 0 139.5 62.5t51.5 182.5t-51.5 181.5t-139.5 61.5q-89 0 -140 -61.5t-51 -181.5
q0 -121 51 -183t140 -62zM239 804v95h315v-95h-315zM350 935l-150 157h140l103 -157h-93z" />
    <glyph glyph-name="uni1E51" unicode="&#x1e51;" horiz-adv-x="604" 
d="M303 -8q-82 0 -142 32t-92.5 91.5t-32.5 140.5t32.5 140t92.5 91.5t142 32.5q80 0 140 -32.5t92.5 -91.5t32.5 -140t-32.5 -140.5t-92.5 -91.5t-140 -32zM303 107q55 0 85 36.5t30 112.5q0 75 -30 111.5t-85 36.5q-56 0 -86.5 -36.5t-30.5 -111.5q0 -76 30 -112.5
t87 -36.5zM145 626v95h315v-95h-315zM256 764l-154 206h149l98 -206h-93z" />
    <glyph glyph-name="uni1E52" unicode="&#x1e52;" horiz-adv-x="795" 
d="M398 -9q-107 0 -185 45t-120.5 127t-42.5 194q0 111 42.5 193t120.5 126.5t185 44.5t184.5 -44.5t119.5 -126.5t42 -193q0 -112 -42 -194t-119.5 -127t-184.5 -45zM398 112q88 0 139.5 62.5t51.5 182.5t-51.5 181.5t-139.5 61.5q-89 0 -140 -61.5t-51 -181.5
q0 -121 51 -183t140 -62zM239 804v95h315v-95h-315zM443 935h-93l103 157h140z" />
    <glyph glyph-name="uni1E53" unicode="&#x1e53;" horiz-adv-x="604" 
d="M303 -8q-82 0 -142 32t-92.5 91.5t-32.5 140.5t32.5 140t92.5 91.5t142 32.5q80 0 140 -32.5t92.5 -91.5t32.5 -140t-32.5 -140.5t-92.5 -91.5t-140 -32zM303 107q55 0 85 36.5t30 112.5q0 75 -30 111.5t-85 36.5q-56 0 -86.5 -36.5t-30.5 -111.5q0 -76 30 -112.5
t87 -36.5zM145 626v95h315v-95h-315zM349 764h-93l98 206h149z" />
    <glyph glyph-name="uni1E5A" unicode="&#x1e5a;" horiz-adv-x="708" 
d="M71 0v712h317q125 0 189 -54.5t64 -154.5q0 -95 -66 -152.5t-184 -57.5l82 17q37 0 66.5 -22t46.5 -67l86 -221h-165l-91 237q-11 29 -35 39.5t-55 10.5h-101v-287h-154zM224 406h141q67 0 98 23t31 70q0 48 -30.5 70.5t-98.5 22.5h-141v-186zM287 -68h139v-133h-139v133
z" />
    <glyph glyph-name="uni1E5B" unicode="&#x1e5b;" horiz-adv-x="410" 
d="M61 0v362q0 36 -1.5 72.5t-6.5 72.5h142l16 -134l-16 8q12 68 57.5 103t103.5 35q17 0 30.5 -3t23.5 -7l-1 -138q-37 17 -74 17q-41 0 -67.5 -15t-41 -42.5t-14.5 -65.5v-265h-151zM67 -68h139v-133h-139v133z" />
    <glyph glyph-name="uni1E5E" unicode="&#x1e5e;" horiz-adv-x="708" 
d="M71 0v712h317q125 0 189 -54.5t64 -154.5q0 -95 -66 -152.5t-184 -57.5l82 17q37 0 66.5 -22t46.5 -67l86 -221h-165l-91 237q-11 29 -35 39.5t-55 10.5h-101v-287h-154zM224 406h141q67 0 98 23t31 70q0 48 -30.5 70.5t-98.5 22.5h-141v-186zM199 -179v89h315v-89h-315z
" />
    <glyph glyph-name="uni1E5F" unicode="&#x1e5f;" horiz-adv-x="410" 
d="M61 0v362q0 36 -1.5 72.5t-6.5 72.5h142l16 -134l-16 8q12 68 57.5 103t103.5 35q17 0 30.5 -3t23.5 -7l-1 -138q-37 17 -74 17q-41 0 -67.5 -15t-41 -42.5t-14.5 -65.5v-265h-151zM-21 -179v89h315v-89h-315z" />
    <glyph glyph-name="uni1E60" unicode="&#x1e60;" horiz-adv-x="657" 
d="M320 -9q-54 0 -105.5 9.5t-96.5 28t-78 44.5l51 112q53 -37 110 -55t120 -18q68 0 104.5 22t36.5 61q0 23 -15 39t-48 28t-88 24q-69 14 -118 33t-79.5 44t-44.5 58.5t-14 77.5q0 63 35.5 113.5t99 79.5t148.5 29q51 0 99.5 -10t89.5 -28t69 -44l-50 -112q-48 37 -100 55
t-106 18q-61 0 -97 -24.5t-36 -66.5q0 -23 14 -39t46.5 -28.5t89.5 -25.5q67 -14 116 -33t80.5 -43.5t46.5 -57t15 -74.5q0 -67 -35 -115.5t-101 -75t-159 -26.5zM250 923h163v-142h-163v142z" />
    <glyph glyph-name="uni1E61" unicode="&#x1e61;" horiz-adv-x="504" 
d="M256 -8q-145 0 -229 62l41 105q40 -29 89.5 -44.5t99.5 -15.5q39 0 60 12.5t21 34.5q0 19 -15 29.5t-53 19.5l-83 20q-74 15 -108.5 50t-34.5 93q0 47 27.5 83.5t76.5 57.5t114 21q55 0 106 -16.5t93 -46.5l-42 -101q-39 27 -79.5 41t-78.5 14q-37 0 -58 -13t-21 -36
q0 -17 12.5 -27t44.5 -18l85 -19q78 -18 113 -54t35 -96q0 -72 -57.5 -114t-158.5 -42zM179 745h163v-142h-163v142z" />
    <glyph glyph-name="uni1E62" unicode="&#x1e62;" horiz-adv-x="657" 
d="M320 -9q-54 0 -105.5 9.5t-96.5 28t-78 44.5l51 112q53 -37 110 -55t120 -18q68 0 104.5 22t36.5 61q0 23 -15 39t-48 28t-88 24q-69 14 -118 33t-79.5 44t-44.5 58.5t-14 77.5q0 63 35.5 113.5t99 79.5t148.5 29q51 0 99.5 -10t89.5 -28t69 -44l-50 -112q-48 37 -100 55
t-106 18q-61 0 -97 -24.5t-36 -66.5q0 -23 14 -39t46.5 -28.5t89.5 -25.5q67 -14 116 -33t80.5 -43.5t46.5 -57t15 -74.5q0 -67 -35 -115.5t-101 -75t-159 -26.5zM257 -68h139v-133h-139v133z" />
    <glyph glyph-name="uni1E63" unicode="&#x1e63;" horiz-adv-x="504" 
d="M256 -8q-145 0 -229 62l41 105q40 -29 89.5 -44.5t99.5 -15.5q39 0 60 12.5t21 34.5q0 19 -15 29.5t-53 19.5l-83 20q-74 15 -108.5 50t-34.5 93q0 47 27.5 83.5t76.5 57.5t114 21q55 0 106 -16.5t93 -46.5l-42 -101q-39 27 -79.5 41t-78.5 14q-37 0 -58 -13t-21 -36
q0 -17 12.5 -27t44.5 -18l85 -19q78 -18 113 -54t35 -96q0 -72 -57.5 -114t-158.5 -42zM182 -68h139v-133h-139v133z" />
    <glyph glyph-name="uni1E64" unicode="&#x1e64;" horiz-adv-x="657" 
d="M320 -9q-54 0 -105.5 9.5t-96.5 28t-78 44.5l51 112q53 -37 110 -55t120 -18q68 0 104.5 22t36.5 61q0 23 -15 39t-48 28t-88 24q-69 14 -118 33t-79.5 44t-44.5 58.5t-14 77.5q0 63 35.5 113.5t99 79.5t148.5 29q51 0 99.5 -10t89.5 -28t69 -44l-50 -112q-48 37 -100 55
t-106 18q-61 0 -97 -24.5t-36 -66.5q0 -23 14 -39t46.5 -28.5t89.5 -25.5q67 -14 116 -33t80.5 -43.5t46.5 -57t15 -74.5q0 -67 -35 -115.5t-101 -75t-159 -26.5zM404 773h-93l103 157h140zM127 929h163v-142h-163v142z" />
    <glyph glyph-name="uni1E65" unicode="&#x1e65;" horiz-adv-x="504" 
d="M256 -8q-145 0 -229 62l41 105q40 -29 89.5 -44.5t99.5 -15.5q39 0 60 12.5t21 34.5q0 19 -15 29.5t-53 19.5l-83 20q-74 15 -108.5 50t-34.5 93q0 47 27.5 83.5t76.5 57.5t114 21q55 0 106 -16.5t93 -46.5l-42 -101q-39 27 -79.5 41t-78.5 14q-37 0 -58 -13t-21 -36
q0 -17 12.5 -27t44.5 -18l85 -19q78 -18 113 -54t35 -96q0 -72 -57.5 -114t-158.5 -42zM321 561h-93l98 206h149zM71 767h163v-142h-163v142z" />
    <glyph glyph-name="uni1E66" unicode="&#x1e66;" horiz-adv-x="657" 
d="M320 -9q-54 0 -105.5 9.5t-96.5 28t-78 44.5l51 112q53 -37 110 -55t120 -18q68 0 104.5 22t36.5 61q0 23 -15 39t-48 28t-88 24q-69 14 -118 33t-79.5 44t-44.5 58.5t-14 77.5q0 63 35.5 113.5t99 79.5t148.5 29q51 0 99.5 -10t89.5 -28t69 -44l-50 -112q-48 37 -100 55
t-106 18q-61 0 -97 -24.5t-36 -66.5q0 -23 14 -39t46.5 -28.5t89.5 -25.5q67 -14 116 -33t80.5 -43.5t46.5 -57t15 -74.5q0 -67 -35 -115.5t-101 -75t-159 -26.5zM394 930h114l-134 -157h-85l-134 157h114l63 -87zM250 1085h163v-142h-163v142z" />
    <glyph glyph-name="uni1E67" unicode="&#x1e67;" horiz-adv-x="504" 
d="M256 -8q-145 0 -229 62l41 105q40 -29 89.5 -44.5t99.5 -15.5q39 0 60 12.5t21 34.5q0 19 -15 29.5t-53 19.5l-83 20q-74 15 -108.5 50t-34.5 93q0 47 27.5 83.5t76.5 57.5t114 21q55 0 106 -16.5t93 -46.5l-42 -101q-39 27 -79.5 41t-78.5 14q-37 0 -58 -13t-21 -36
q0 -17 12.5 -27t44.5 -18l85 -19q78 -18 113 -54t35 -96q0 -72 -57.5 -114t-158.5 -42zM319 778h118l-131 -206h-91l-131 206h118l59 -118zM179 937h163v-142h-163v142z" />
    <glyph glyph-name="uni1E68" unicode="&#x1e68;" horiz-adv-x="657" 
d="M320 -9q-54 0 -105.5 9.5t-96.5 28t-78 44.5l51 112q53 -37 110 -55t120 -18q68 0 104.5 22t36.5 61q0 23 -15 39t-48 28t-88 24q-69 14 -118 33t-79.5 44t-44.5 58.5t-14 77.5q0 63 35.5 113.5t99 79.5t148.5 29q51 0 99.5 -10t89.5 -28t69 -44l-50 -112q-48 37 -100 55
t-106 18q-61 0 -97 -24.5t-36 -66.5q0 -23 14 -39t46.5 -28.5t89.5 -25.5q67 -14 116 -33t80.5 -43.5t46.5 -57t15 -74.5q0 -67 -35 -115.5t-101 -75t-159 -26.5zM257 -68h139v-133h-139v133zM250 923h163v-142h-163v142z" />
    <glyph glyph-name="uni1E69" unicode="&#x1e69;" horiz-adv-x="504" 
d="M256 -8q-145 0 -229 62l41 105q40 -29 89.5 -44.5t99.5 -15.5q39 0 60 12.5t21 34.5q0 19 -15 29.5t-53 19.5l-83 20q-74 15 -108.5 50t-34.5 93q0 47 27.5 83.5t76.5 57.5t114 21q55 0 106 -16.5t93 -46.5l-42 -101q-39 27 -79.5 41t-78.5 14q-37 0 -58 -13t-21 -36
q0 -17 12.5 -27t44.5 -18l85 -19q78 -18 113 -54t35 -96q0 -72 -57.5 -114t-158.5 -42zM182 -68h139v-133h-139v133zM179 745h163v-142h-163v142z" />
    <glyph glyph-name="uni1E6C" unicode="&#x1e6c;" horiz-adv-x="628" 
d="M235 0v585h-223v127h604v-127h-223v-585h-158zM244 -68h139v-133h-139v133z" />
    <glyph glyph-name="uni1E6D" unicode="&#x1e6d;" horiz-adv-x="396" 
d="M4 394v113h376v-113h-376zM380 122v-116q-21 -8 -42 -11t-45 -3q-94 0 -143.5 53.5t-49.5 148.5v432l151 49v-478q0 -30 11 -48t29 -25.5t39 -7.5q12 0 23.5 1.5t26.5 4.5zM180 -68h139v-133h-139v133z" />
    <glyph glyph-name="uni1E6E" unicode="&#x1e6e;" horiz-adv-x="628" 
d="M235 0v585h-223v127h604v-127h-223v-585h-158zM156 -179v89h315v-89h-315z" />
    <glyph glyph-name="uni1E6F" unicode="&#x1e6f;" horiz-adv-x="396" 
d="M4 394v113h376v-113h-376zM380 122v-116q-21 -8 -42 -11t-45 -3q-94 0 -143.5 53.5t-49.5 148.5v432l151 49v-478q0 -30 11 -48t29 -25.5t39 -7.5q12 0 23.5 1.5t26.5 4.5zM92 -179v89h315v-89h-315z" />
    <glyph glyph-name="uni1E78" unicode="&#x1e78;" horiz-adv-x="746" 
d="M374 -9q-151 0 -228.5 77t-77.5 226v418h152v-425q0 -85 39 -130t115 -45q73 0 112 45t39 130v425h155v-418q0 -148 -79 -225.5t-227 -77.5zM198 780q0 76 32 111.5t77 35.5q26 0 49.5 -13t44.5 -26.5t40 -13.5q18 0 30 13t14 37h64q0 -77 -32 -112t-77 -35
q-26 0 -49.5 13t-44.5 26t-40 13q-18 0 -30 -13t-14 -36h-64zM420 935h-93l103 157h140z" />
    <glyph glyph-name="uni1E79" unicode="&#x1e79;" horiz-adv-x="606" 
d="M247 -8q-95 0 -142 53t-47 160v302h151v-305q0 -47 19.5 -69.5t60.5 -22.5q46 0 75 32t29 85v280h152v-507h-147v101l13 -1q-22 -53 -64.5 -80.5t-99.5 -27.5zM127 604q0 76 32 111t77 35q26 0 49.5 -13t44.5 -26t40 -13q18 0 30 13t14 36h64q0 -76 -32 -111t-77 -35
q-26 0 -49.5 13t-44.5 26t-40 13q-18 0 -30 -13t-14 -36h-64zM349 764h-93l98 206h149z" />
    <glyph glyph-name="uni1E7A" unicode="&#x1e7a;" horiz-adv-x="746" 
d="M374 -9q-151 0 -228.5 77t-77.5 226v418h152v-425q0 -85 39 -130t115 -45q73 0 112 45t39 130v425h155v-418q0 -148 -79 -225.5t-227 -77.5zM216 804v95h315v-95h-315zM400 1080h139v-132h-139v132zM208 1080h139v-132h-139v132z" />
    <glyph glyph-name="uni1E7B" unicode="&#x1e7b;" horiz-adv-x="606" 
d="M247 -8q-95 0 -142 53t-47 160v302h151v-305q0 -47 19.5 -69.5t60.5 -22.5q46 0 75 32t29 85v280h152v-507h-147v101l13 -1q-22 -53 -64.5 -80.5t-99.5 -27.5zM145 626v95h315v-95h-315zM329 932h139v-133h-139v133zM137 932h139v-133h-139v133z" />
    <glyph glyph-name="Wgrave" unicode="&#x1e80;" horiz-adv-x="1126" 
d="M271 0l-253 712h159l183 -551h-40l193 551h109l185 -551h-35l186 551h149l-253 -712h-125l-178 506h25l-180 -506h-125zM516 773l-150 157h140l103 -157h-93z" />
    <glyph glyph-name="wgrave" unicode="&#x1e81;" horiz-adv-x="891" 
d="M205 0l-205 507h155l134 -362h-25l133 362h103l134 -362h-22l132 362h146l-205 -507h-127l-148 379h66l-143 -379h-128zM398 572l-154 206h149l98 -206h-93z" />
    <glyph glyph-name="Wacute" unicode="&#x1e82;" horiz-adv-x="1126" 
d="M271 0l-253 712h159l183 -551h-40l193 551h109l185 -551h-35l186 551h149l-253 -712h-125l-178 506h25l-180 -506h-125zM609 773h-93l103 157h140z" />
    <glyph glyph-name="wacute" unicode="&#x1e83;" horiz-adv-x="891" 
d="M205 0l-205 507h155l134 -362h-25l133 362h103l134 -362h-22l132 362h146l-205 -507h-127l-148 379h66l-143 -379h-128zM491 572h-93l98 206h149z" />
    <glyph glyph-name="Wdieresis" unicode="&#x1e84;" horiz-adv-x="1126" 
d="M271 0l-253 712h159l183 -551h-40l193 551h109l185 -551h-35l186 551h149l-253 -712h-125l-178 506h25l-180 -506h-125zM589 918h139v-132h-139v132zM397 918h139v-132h-139v132z" />
    <glyph glyph-name="wdieresis" unicode="&#x1e85;" horiz-adv-x="891" 
d="M205 0l-205 507h155l134 -362h-25l133 362h103l134 -362h-22l132 362h146l-205 -507h-127l-148 379h66l-143 -379h-128zM471 740h139v-133h-139v133zM279 740h139v-133h-139v133z" />
    <glyph glyph-name="uni1E8E" unicode="&#x1e8e;" horiz-adv-x="642" 
d="M242 0v320l33 -90l-326 482h177l215 -337h-42l217 337h178l-326 -482l31 90v-320h-157zM239 923h163v-142h-163v142z" />
    <glyph glyph-name="uni1E8F" unicode="&#x1e8f;" horiz-adv-x="551" 
d="M58 -228l-35 116q47 9 77.5 22.5t50.5 33.5t33 49l39 87l40 59l149 368h149l-233 -533q-31 -70 -71 -111t-90 -62t-109 -29zM227 -38l-237 545h157l146 -368zM193 745h163v-142h-163v142z" />
    <glyph glyph-name="uni1E92" unicode="&#x1e92;" horiz-adv-x="616" 
d="M51 0v114l374 518l-1 -44h-373v124h518v-113l-377 -519l2 44h386v-124h-529zM236 -68h139v-133h-139v133z" />
    <glyph glyph-name="uni1E93" unicode="&#x1e93;" horiz-adv-x="530" 
d="M48 0v106l285 320l9 -32h-290v113h433v-102l-289 -325l-6 33h305v-113h-447zM193 -68h139v-133h-139v133z" />
    <glyph glyph-name="uni1E97" unicode="&#x1e97;" horiz-adv-x="396" 
d="M4 394v113h376v-113h-376zM380 122v-116q-21 -8 -42 -11t-45 -3q-94 0 -143.5 53.5t-49.5 148.5v432l151 49v-478q0 -30 11 -48t29 -25.5t39 -7.5q12 0 23.5 1.5t26.5 4.5zM202 862h139v-132h-139v132zM10 862h139v-132h-139v132z" />
    <glyph glyph-name="uni1E9E" unicode="&#x1e9e;" horiz-adv-x="717" 
d="M71 0v446q0 130 79 201.5t222 71.5q77 0 134 -24.5t88.5 -69t31.5 -105.5q0 -58 -32.5 -99.5t-87.5 -58.5v14q81 -9 127 -56.5t46 -120.5q0 -59 -29 -105.5t-80 -73t-116 -26.5q-58 0 -104 13.5t-86 44.5l42 110q40 -27 74 -39.5t64 -12.5q41 0 64 25t23 69q0 50 -31 73
t-104 23h-101v121h82q51 0 77 22t26 63q0 43 -30.5 67t-81.5 24q-70 0 -107 -38t-37 -110v-449h-153z" />
    <glyph glyph-name="uni1EA0" unicode="&#x1ea0;" horiz-adv-x="759" 
d="M146 0h-157l327 712h126l327 -712h-155l-252 588h38zM137 158l60 119h356l59 -119h-475zM310 -68h139v-133h-139v133z" />
    <glyph glyph-name="uni1EA1" unicode="&#x1ea1;" horiz-adv-x="630" 
d="M260 -8q-66 0 -117 32t-79 91t-28 138t28.5 139.5t79 94t116.5 33.5q61 0 108 -30t64 -81l-12 -8v106h149v-507h-149v104l12 -2q-17 -52 -64 -81t-108 -29zM304 107q55 0 85.5 38t30.5 110t-30.5 110.5t-85.5 38.5t-86.5 -40t-31.5 -111t30.5 -108.5t87.5 -37.5zM245 -68
h139v-133h-139v133z" />
    <glyph glyph-name="uni1EA2" unicode="&#x1ea2;" horiz-adv-x="759" 
d="M146 0h-157l327 712h126l327 -712h-155l-252 588h38zM137 158l60 119h356l59 -119h-475zM416 786v-13h-75v22q0 17 10 26t23 14.5t23 10t10 11.5q0 8 -7 12.5t-27 4.5q-10 0 -24.5 -2.5t-32.5 -7.5l-19 52q18 7 41.5 12.5t54.5 5.5q49 0 77.5 -19t28.5 -45
q0 -20 -12.5 -31t-29 -18t-29 -14.5t-12.5 -20.5z" />
    <glyph glyph-name="uni1EA3" unicode="&#x1ea3;" horiz-adv-x="630" 
d="M260 -8q-66 0 -117 32t-79 91t-28 138t28.5 139.5t79 94t116.5 33.5q61 0 108 -30t64 -81l-12 -8v106h149v-507h-149v104l12 -2q-17 -52 -64 -81t-108 -29zM304 107q55 0 85.5 38t30.5 110t-30.5 110.5t-85.5 38.5t-86.5 -40t-31.5 -111t30.5 -108.5t87.5 -37.5zM354 593
v-21h-76v25q0 20 9 33.5t21 23.5t20.5 18.5t8.5 18.5q0 11 -8.5 17t-25.5 6q-11 0 -23 -2t-27 -7l-20 57q23 11 44.5 15t41.5 4q58 0 87 -23t29 -53q0 -24 -12 -39t-28 -26t-28.5 -21.5t-12.5 -25.5z" />
    <glyph glyph-name="uni1EA4" unicode="&#x1ea4;" horiz-adv-x="759" 
d="M146 0h-157l327 712h126l327 -712h-155l-252 588h38zM137 158l60 119h356l59 -119h-475zM314 773h-112l134 140h85l134 -140h-112l-64 71zM547 881h-74l73 142h125z" />
    <glyph glyph-name="uni1EA5" unicode="&#x1ea5;" horiz-adv-x="630" 
d="M260 -8q-66 0 -117 32t-79 91t-28 138t28.5 139.5t79 94t116.5 33.5q61 0 108 -30t64 -81l-12 -8v106h149v-507h-149v104l12 -2q-17 -52 -64 -81t-108 -29zM304 107q55 0 85.5 38t30.5 110t-30.5 110.5t-85.5 38.5t-86.5 -40t-31.5 -111t30.5 -108.5t87.5 -37.5zM250 572
h-112l134 139h85l134 -139h-112l-64 71zM483 680h-74l73 141h125z" />
    <glyph glyph-name="uni1EA6" unicode="&#x1ea6;" horiz-adv-x="759" 
d="M146 0h-157l327 712h126l327 -712h-155l-252 588h38zM137 158l60 119h356l59 -119h-475zM314 773h-112l134 140h85l134 -140h-112l-64 71zM516 881l-123 142h126l71 -142h-74z" />
    <glyph glyph-name="uni1EA7" unicode="&#x1ea7;" horiz-adv-x="630" 
d="M260 -8q-66 0 -117 32t-79 91t-28 138t28.5 139.5t79 94t116.5 33.5q61 0 108 -30t64 -81l-12 -8v106h149v-507h-149v104l12 -2q-17 -52 -64 -81t-108 -29zM304 107q55 0 85.5 38t30.5 110t-30.5 110.5t-85.5 38.5t-86.5 -40t-31.5 -111t30.5 -108.5t87.5 -37.5zM250 572
h-112l134 139h85l134 -139h-112l-64 71zM452 680l-123 141h126l71 -141h-74z" />
    <glyph glyph-name="uni1EA8" unicode="&#x1ea8;" horiz-adv-x="759" 
d="M146 0h-157l327 712h126l327 -712h-155l-252 588h38zM137 158l60 119h356l59 -119h-475zM314 773h-112l134 140h85l134 -140h-112l-64 71zM547 890v-8h-75v20q0 15 10 24.5t23 14.5t23.5 8.5t10.5 7.5q0 6 -7.5 10t-26.5 4q-10 0 -25 -2.5t-32 -8.5l-20 51
q19 7 42.5 12.5t53.5 5.5q50 0 78.5 -17t28.5 -43q0 -21 -12.5 -31t-29 -16t-29.5 -13t-13 -19z" />
    <glyph glyph-name="uni1EA9" unicode="&#x1ea9;" horiz-adv-x="630" 
d="M260 -8q-66 0 -117 32t-79 91t-28 138t28.5 139.5t79 94t116.5 33.5q61 0 108 -30t64 -81l-12 -8v106h149v-507h-149v104l12 -2q-17 -52 -64 -81t-108 -29zM304 107q55 0 85.5 38t30.5 110t-30.5 110.5t-85.5 38.5t-86.5 -40t-31.5 -111t30.5 -108.5t87.5 -37.5zM250 572
h-112l134 139h85l134 -139h-112l-64 71zM483 689v-9h-75v20q0 17 10 26t23 14t23.5 8t10.5 8q0 4 -7.5 9t-26.5 5q-10 0 -25 -3t-32 -9l-20 51q19 8 42.5 13.5t53.5 5.5q50 0 78.5 -17.5t28.5 -44.5q0 -19 -12.5 -29.5t-29 -16.5t-29.5 -12.5t-13 -18.5z" />
    <glyph glyph-name="uni1EAA" unicode="&#x1eaa;" horiz-adv-x="759" 
d="M146 0h-157l327 712h126l327 -712h-155l-252 588h38zM137 158l60 119h356l59 -119h-475zM314 773h-112l134 140h85l134 -140h-112l-64 71zM203 930q0 31 15 55t40 37.5t54 13.5q26 0 49.5 -8t44.5 -16.5t40 -8.5q18 0 30 7t14 23h64q0 -30 -15 -54t-40 -37.5t-54 -13.5
q-26 0 -49.5 8t-44.5 16.5t-40 8.5q-18 0 -30 -7t-14 -24h-64z" />
    <glyph glyph-name="uni1EAB" unicode="&#x1eab;" horiz-adv-x="630" 
d="M260 -8q-66 0 -117 32t-79 91t-28 138t28.5 139.5t79 94t116.5 33.5q61 0 108 -30t64 -81l-12 -8v106h149v-507h-149v104l12 -2q-17 -52 -64 -81t-108 -29zM304 107q55 0 85.5 38t30.5 110t-30.5 110.5t-85.5 38.5t-86.5 -40t-31.5 -111t30.5 -108.5t87.5 -37.5zM250 572
h-112l134 139h85l134 -139h-112l-64 71zM139 729q0 30 15 54t40 38t54 14q26 0 49.5 -8.5t44.5 -16.5t40 -8q18 0 30 7t14 23h64q0 -30 -15 -53.5t-40 -37.5t-54 -14q-26 0 -49.5 8t-44.5 16t-40 8q-18 0 -30 -7t-14 -23h-64z" />
    <glyph glyph-name="uni1EAC" unicode="&#x1eac;" horiz-adv-x="759" 
d="M146 0h-157l327 712h126l327 -712h-155l-252 588h38zM137 158l60 119h356l59 -119h-475zM310 -68h139v-133h-139v133zM316 773h-114l134 157h85l134 -157h-114l-62 86z" />
    <glyph glyph-name="uni1EAD" unicode="&#x1ead;" horiz-adv-x="630" 
d="M260 -8q-66 0 -117 32t-79 91t-28 138t28.5 139.5t79 94t116.5 33.5q61 0 108 -30t64 -81l-12 -8v106h149v-507h-149v104l12 -2q-17 -52 -64 -81t-108 -29zM304 107q55 0 85.5 38t30.5 110t-30.5 110.5t-85.5 38.5t-86.5 -40t-31.5 -111t30.5 -108.5t87.5 -37.5zM245 -68
h139v-133h-139v133zM256 572h-118l131 206h91l131 -206h-118l-58 117z" />
    <glyph glyph-name="uni1EAE" unicode="&#x1eae;" horiz-adv-x="759" 
d="M146 0h-157l327 712h126l327 -712h-155l-252 588h38zM137 158l60 119h356l59 -119h-475zM379 768q-64 0 -112 27t-68 83l54 23q19 -28 54.5 -42.5t71.5 -14.5t71 14.5t54 42.5l54 -23q-20 -56 -68 -83t-111 -27zM423 881h-89l101 142h130z" />
    <glyph glyph-name="uni1EAF" unicode="&#x1eaf;" horiz-adv-x="630" 
d="M260 -8q-66 0 -117 32t-79 91t-28 138t28.5 139.5t79 94t116.5 33.5q61 0 108 -30t64 -81l-12 -8v106h149v-507h-149v104l12 -2q-17 -52 -64 -81t-108 -29zM304 107q55 0 85.5 38t30.5 110t-30.5 110.5t-85.5 38.5t-86.5 -40t-31.5 -111t30.5 -108.5t87.5 -37.5zM315 567
q-64 0 -112 27.5t-68 81.5l54 23q19 -29 54.5 -42.5t71.5 -13.5t71 13.5t54 42.5l54 -23q-20 -54 -68 -81.5t-111 -27.5zM359 680h-89l101 141h130z" />
    <glyph glyph-name="uni1EB0" unicode="&#x1eb0;" horiz-adv-x="759" 
d="M146 0h-157l327 712h126l327 -712h-155l-252 588h38zM137 158l60 119h356l59 -119h-475zM379 768q-64 0 -112 27t-68 83l54 23q19 -28 54.5 -42.5t71.5 -14.5t71 14.5t54 42.5l54 -23q-20 -56 -68 -83t-111 -27zM334 881l-142 142h130l101 -142h-89z" />
    <glyph glyph-name="uni1EB1" unicode="&#x1eb1;" horiz-adv-x="630" 
d="M260 -8q-66 0 -117 32t-79 91t-28 138t28.5 139.5t79 94t116.5 33.5q61 0 108 -30t64 -81l-12 -8v106h149v-507h-149v104l12 -2q-17 -52 -64 -81t-108 -29zM304 107q55 0 85.5 38t30.5 110t-30.5 110.5t-85.5 38.5t-86.5 -40t-31.5 -111t30.5 -108.5t87.5 -37.5zM315 567
q-64 0 -112 27.5t-68 81.5l54 23q19 -29 54.5 -42.5t71.5 -13.5t71 13.5t54 42.5l54 -23q-20 -54 -68 -81.5t-111 -27.5zM270 680l-142 141h130l101 -141h-89z" />
    <glyph glyph-name="uni1EB2" unicode="&#x1eb2;" horiz-adv-x="759" 
d="M146 0h-157l327 712h126l327 -712h-155l-252 588h38zM137 158l60 119h356l59 -119h-475zM379 768q-64 0 -112 27t-68 83l54 23q19 -28 54.5 -42.5t71.5 -14.5t71 14.5t54 42.5l54 -23q-20 -56 -68 -83t-111 -27zM416 890v-8h-75v20q0 15 10 24.5t23 14.5t23 8.5t10 7.5
q0 6 -7 10t-27 4q-10 0 -24.5 -2.5t-32.5 -8.5l-19 51q18 7 41.5 12.5t54.5 5.5q49 0 77.5 -17t28.5 -43q0 -21 -12.5 -31t-29 -16t-29 -13t-12.5 -19z" />
    <glyph glyph-name="uni1EB3" unicode="&#x1eb3;" horiz-adv-x="630" 
d="M260 -8q-66 0 -117 32t-79 91t-28 138t28.5 139.5t79 94t116.5 33.5q61 0 108 -30t64 -81l-12 -8v106h149v-507h-149v104l12 -2q-17 -52 -64 -81t-108 -29zM304 107q55 0 85.5 38t30.5 110t-30.5 110.5t-85.5 38.5t-86.5 -40t-31.5 -111t30.5 -108.5t87.5 -37.5zM315 567
q-64 0 -112 27.5t-68 81.5l54 23q19 -29 54.5 -42.5t71.5 -13.5t71 13.5t54 42.5l54 -23q-20 -54 -68 -81.5t-111 -27.5zM352 689v-9h-75v20q0 17 10 26t23 14t23 8t10 8q0 4 -7 9t-27 5q-10 0 -24.5 -3t-32.5 -9l-19 51q18 8 41.5 13.5t54.5 5.5q49 0 77.5 -17.5
t28.5 -44.5q0 -19 -12.5 -29.5t-29 -16.5t-29 -12.5t-12.5 -18.5z" />
    <glyph glyph-name="uni1EB4" unicode="&#x1eb4;" horiz-adv-x="759" 
d="M146 0h-157l327 712h126l327 -712h-155l-252 588h38zM137 158l60 119h356l59 -119h-475zM379 768q-64 0 -112 27t-68 83l54 23q19 -28 54.5 -42.5t71.5 -14.5t71 14.5t54 42.5l54 -23q-20 -56 -68 -83t-111 -27zM203 922q0 31 15 54.5t40 37.5t54 14q26 0 49.5 -8.5
t44.5 -16.5t40 -8q18 0 30 7t14 23h64q0 -30 -15 -54t-40 -38t-54 -14q-26 0 -49.5 8.5t-44.5 17t-40 8.5q-18 0 -30 -7.5t-14 -23.5h-64z" />
    <glyph glyph-name="uni1EB5" unicode="&#x1eb5;" horiz-adv-x="630" 
d="M260 -8q-66 0 -117 32t-79 91t-28 138t28.5 139.5t79 94t116.5 33.5q61 0 108 -30t64 -81l-12 -8v106h149v-507h-149v104l12 -2q-17 -52 -64 -81t-108 -29zM304 107q55 0 85.5 38t30.5 110t-30.5 110.5t-85.5 38.5t-86.5 -40t-31.5 -111t30.5 -108.5t87.5 -37.5zM315 567
q-64 0 -112 27.5t-68 81.5l54 23q19 -29 54.5 -42.5t71.5 -13.5t71 13.5t54 42.5l54 -23q-20 -54 -68 -81.5t-111 -27.5zM139 721q0 30 15 54t40 38t54 14q26 0 49.5 -8.5t44.5 -17t40 -8.5q18 0 30 7.5t14 23.5h64q0 -31 -15 -54.5t-40 -37.5t-54 -14q-26 0 -49.5 8
t-44.5 16.5t-40 8.5q-18 0 -30 -7t-14 -23h-64z" />
    <glyph glyph-name="uni1EB6" unicode="&#x1eb6;" horiz-adv-x="759" 
d="M146 0h-157l327 712h126l327 -712h-155l-252 588h38zM137 158l60 119h356l59 -119h-475zM310 -68h139v-133h-139v133zM379 782q-64 0 -112 27.5t-68 82.5l70 30q18 -29 47 -39.5t63 -10.5q33 0 62 10.5t47 39.5l70 -30q-20 -55 -68 -82.5t-111 -27.5z" />
    <glyph glyph-name="uni1EB7" unicode="&#x1eb7;" horiz-adv-x="630" 
d="M260 -8q-66 0 -117 32t-79 91t-28 138t28.5 139.5t79 94t116.5 33.5q61 0 108 -30t64 -81l-12 -8v106h149v-507h-149v104l12 -2q-17 -52 -64 -81t-108 -29zM304 107q55 0 85.5 38t30.5 110t-30.5 110.5t-85.5 38.5t-86.5 -40t-31.5 -111t30.5 -108.5t87.5 -37.5zM245 -68
h139v-133h-139v133zM315 594q-41 0 -79.5 15.5t-67 48t-40.5 82.5l69 30q24 -44 54 -62t64 -18q33 0 63 18t54 62l69 -30q-12 -50 -40 -82.5t-66.5 -48t-79.5 -15.5z" />
    <glyph glyph-name="uni1EB8" unicode="&#x1eb8;" horiz-adv-x="599" 
d="M71 0v712h491v-121h-338v-168h317v-122h-317v-180h338v-121h-491zM263 -68h139v-133h-139v133z" />
    <glyph glyph-name="uni1EB9" unicode="&#x1eb9;" horiz-adv-x="550" 
d="M507 54q-37 -29 -90 -45.5t-107 -16.5q-85 0 -146.5 32t-94.5 91t-33 140q0 78 32 138t87.5 93.5t129.5 33.5q71 0 123 -31.5t80 -89t28 -136.5v-22h-347l2 75h255l-39 -31q1 64 -24.5 96.5t-73.5 32.5q-52 0 -80.5 -37.5t-28.5 -109.5q0 -85 33.5 -123t102.5 -38
q40 0 79 13t72 37zM237 -68h139v-133h-139v133z" />
    <glyph glyph-name="uni1EBA" unicode="&#x1eba;" horiz-adv-x="599" 
d="M71 0v712h491v-121h-338v-168h317v-122h-317v-180h338v-121h-491zM370 786v-13h-75v22q0 17 10 26t23 14.5t23 10t10 11.5q0 8 -7 12.5t-27 4.5q-10 0 -24.5 -2.5t-32.5 -7.5l-19 52q18 7 41.5 12.5t54.5 5.5q49 0 77.5 -19t28.5 -45q0 -20 -12.5 -31t-29 -18t-29 -14.5
t-12.5 -20.5z" />
    <glyph glyph-name="uni1EBB" unicode="&#x1ebb;" horiz-adv-x="550" 
d="M507 54q-37 -29 -90 -45.5t-107 -16.5q-85 0 -146.5 32t-94.5 91t-33 140q0 78 32 138t87.5 93.5t129.5 33.5q71 0 123 -31.5t80 -89t28 -136.5v-22h-347l2 75h255l-39 -31q1 64 -24.5 96.5t-73.5 32.5q-52 0 -80.5 -37.5t-28.5 -109.5q0 -85 33.5 -123t102.5 -38
q40 0 79 13t72 37zM324 593v-21h-76v25q0 20 9 33.5t21 23.5t20.5 18.5t8.5 18.5q0 11 -8.5 17t-25.5 6q-11 0 -23 -2t-27 -7l-20 57q23 11 44.5 15t41.5 4q58 0 87 -23t29 -53q0 -24 -12 -39t-28 -26t-28.5 -21.5t-12.5 -25.5z" />
    <glyph glyph-name="uni1EBC" unicode="&#x1ebc;" horiz-adv-x="599" 
d="M71 0v712h491v-121h-338v-168h317v-122h-317v-180h338v-121h-491zM157 780q0 76 32 111.5t77 35.5q26 0 49.5 -13t44.5 -26.5t40 -13.5q18 0 30 13t14 37h64q0 -77 -32 -112t-77 -35q-26 0 -49.5 13t-44.5 26t-40 13q-18 0 -30 -13t-14 -36h-64z" />
    <glyph glyph-name="uni1EBD" unicode="&#x1ebd;" horiz-adv-x="550" 
d="M507 54q-37 -29 -90 -45.5t-107 -16.5q-85 0 -146.5 32t-94.5 91t-33 140q0 78 32 138t87.5 93.5t129.5 33.5q71 0 123 -31.5t80 -89t28 -136.5v-22h-347l2 75h255l-39 -31q1 64 -24.5 96.5t-73.5 32.5q-52 0 -80.5 -37.5t-28.5 -109.5q0 -85 33.5 -123t102.5 -38
q40 0 79 13t72 37zM109 604q0 76 32 111t77 35q26 0 49.5 -13t44.5 -26t40 -13q18 0 30 13t14 36h64q0 -76 -32 -111t-77 -35q-26 0 -49.5 13t-44.5 26t-40 13q-18 0 -30 -13t-14 -36h-64z" />
    <glyph glyph-name="uni1EBE" unicode="&#x1ebe;" horiz-adv-x="599" 
d="M71 0v712h491v-121h-338v-168h317v-122h-317v-180h338v-121h-491zM268 773h-112l134 140h85l134 -140h-112l-64 71zM501 881h-74l73 142h125z" />
    <glyph glyph-name="uni1EBF" unicode="&#x1ebf;" horiz-adv-x="550" 
d="M507 54q-37 -29 -90 -45.5t-107 -16.5q-85 0 -146.5 32t-94.5 91t-33 140q0 78 32 138t87.5 93.5t129.5 33.5q71 0 123 -31.5t80 -89t28 -136.5v-22h-347l2 75h255l-39 -31q1 64 -24.5 96.5t-73.5 32.5q-52 0 -80.5 -37.5t-28.5 -109.5q0 -85 33.5 -123t102.5 -38
q40 0 79 13t72 37zM220 572h-112l134 139h85l134 -139h-112l-64 71zM453 680h-74l73 141h125z" />
    <glyph glyph-name="uni1EC0" unicode="&#x1ec0;" horiz-adv-x="599" 
d="M71 0v712h491v-121h-338v-168h317v-122h-317v-180h338v-121h-491zM268 773h-112l134 140h85l134 -140h-112l-64 71zM470 881l-123 142h126l71 -142h-74z" />
    <glyph glyph-name="uni1EC1" unicode="&#x1ec1;" horiz-adv-x="550" 
d="M507 54q-37 -29 -90 -45.5t-107 -16.5q-85 0 -146.5 32t-94.5 91t-33 140q0 78 32 138t87.5 93.5t129.5 33.5q71 0 123 -31.5t80 -89t28 -136.5v-22h-347l2 75h255l-39 -31q1 64 -24.5 96.5t-73.5 32.5q-52 0 -80.5 -37.5t-28.5 -109.5q0 -85 33.5 -123t102.5 -38
q40 0 79 13t72 37zM220 572h-112l134 139h85l134 -139h-112l-64 71zM422 680l-123 141h126l71 -141h-74z" />
    <glyph glyph-name="uni1EC2" unicode="&#x1ec2;" horiz-adv-x="599" 
d="M71 0v712h491v-121h-338v-168h317v-122h-317v-180h338v-121h-491zM268 773h-112l134 140h85l134 -140h-112l-64 71zM501 890v-8h-75v20q0 15 10 24.5t23 14.5t23.5 8.5t10.5 7.5q0 6 -7.5 10t-26.5 4q-10 0 -25 -2.5t-32 -8.5l-20 51q19 7 42.5 12.5t53.5 5.5
q50 0 78.5 -17t28.5 -43q0 -21 -12.5 -31t-29 -16t-29.5 -13t-13 -19z" />
    <glyph glyph-name="uni1EC3" unicode="&#x1ec3;" horiz-adv-x="550" 
d="M507 54q-37 -29 -90 -45.5t-107 -16.5q-85 0 -146.5 32t-94.5 91t-33 140q0 78 32 138t87.5 93.5t129.5 33.5q71 0 123 -31.5t80 -89t28 -136.5v-22h-347l2 75h255l-39 -31q1 64 -24.5 96.5t-73.5 32.5q-52 0 -80.5 -37.5t-28.5 -109.5q0 -85 33.5 -123t102.5 -38
q40 0 79 13t72 37zM220 572h-112l134 139h85l134 -139h-112l-64 71zM453 689v-9h-75v20q0 17 10 26t23 14t23.5 8t10.5 8q0 4 -7.5 9t-26.5 5q-10 0 -25 -3t-32 -9l-20 51q19 8 42.5 13.5t53.5 5.5q50 0 78.5 -17.5t28.5 -44.5q0 -19 -12.5 -29.5t-29 -16.5t-29.5 -12.5
t-13 -18.5z" />
    <glyph glyph-name="uni1EC4" unicode="&#x1ec4;" horiz-adv-x="599" 
d="M71 0v712h491v-121h-338v-168h317v-122h-317v-180h338v-121h-491zM268 773h-112l134 140h85l134 -140h-112l-64 71zM157 930q0 31 15 55t40 37.5t54 13.5q26 0 49.5 -8t44.5 -16.5t40 -8.5q18 0 30 7t14 23h64q0 -30 -15 -54t-40 -37.5t-54 -13.5q-26 0 -49.5 8
t-44.5 16.5t-40 8.5q-18 0 -30 -7t-14 -24h-64z" />
    <glyph glyph-name="uni1EC5" unicode="&#x1ec5;" horiz-adv-x="550" 
d="M507 54q-37 -29 -90 -45.5t-107 -16.5q-85 0 -146.5 32t-94.5 91t-33 140q0 78 32 138t87.5 93.5t129.5 33.5q71 0 123 -31.5t80 -89t28 -136.5v-22h-347l2 75h255l-39 -31q1 64 -24.5 96.5t-73.5 32.5q-52 0 -80.5 -37.5t-28.5 -109.5q0 -85 33.5 -123t102.5 -38
q40 0 79 13t72 37zM220 572h-112l134 139h85l134 -139h-112l-64 71zM109 729q0 30 15 54t40 38t54 14q26 0 49.5 -8.5t44.5 -16.5t40 -8q18 0 30 7t14 23h64q0 -30 -15 -53.5t-40 -37.5t-54 -14q-26 0 -49.5 8t-44.5 16t-40 8q-18 0 -30 -7t-14 -23h-64z" />
    <glyph glyph-name="uni1EC6" unicode="&#x1ec6;" horiz-adv-x="599" 
d="M71 0v712h491v-121h-338v-168h317v-122h-317v-180h338v-121h-491zM263 -68h139v-133h-139v133zM270 773h-114l134 157h85l134 -157h-114l-62 86z" />
    <glyph glyph-name="uni1EC7" unicode="&#x1ec7;" horiz-adv-x="550" 
d="M507 54q-37 -29 -90 -45.5t-107 -16.5q-85 0 -146.5 32t-94.5 91t-33 140q0 78 32 138t87.5 93.5t129.5 33.5q71 0 123 -31.5t80 -89t28 -136.5v-22h-347l2 75h255l-39 -31q1 64 -24.5 96.5t-73.5 32.5q-52 0 -80.5 -37.5t-28.5 -109.5q0 -85 33.5 -123t102.5 -38
q40 0 79 13t72 37zM237 -68h139v-133h-139v133zM226 572h-118l131 206h91l131 -206h-118l-58 117z" />
    <glyph glyph-name="uni1EC8" unicode="&#x1ec8;" horiz-adv-x="299" 
d="M71 0v712h156v-712h-156zM186 786v-13h-75v22q0 17 10 26t23 14.5t23 10t10 11.5q0 8 -7 12.5t-27 4.5q-10 0 -24.5 -2.5t-32.5 -7.5l-19 52q18 7 41.5 12.5t54.5 5.5q49 0 77.5 -19t28.5 -45q0 -20 -12.5 -31t-29 -18t-29 -14.5t-12.5 -20.5z" />
    <glyph glyph-name="uni1EC9" unicode="&#x1ec9;" horiz-adv-x="274" 
d="M61 0v507h151v-507h-151zM176 593v-21h-76v25q0 20 9 33.5t21 23.5t20.5 18.5t8.5 18.5q0 11 -8.5 17t-25.5 6q-11 0 -23 -2t-27 -7l-20 57q23 11 44.5 15t41.5 4q58 0 87 -23t29 -53q0 -24 -12 -39t-28 -26t-28.5 -21.5t-12.5 -25.5z" />
    <glyph glyph-name="uni1ECA" unicode="&#x1eca;" horiz-adv-x="299" 
d="M71 0v712h156v-712h-156zM79 -68h139v-133h-139v133z" />
    <glyph glyph-name="uni1ECB" unicode="&#x1ecb;" horiz-adv-x="274" 
d="M61 0v507h151v-507h-151zM55 745h163v-142h-163v142zM66 -68h139v-133h-139v133z" />
    <glyph glyph-name="uni1ECC" unicode="&#x1ecc;" horiz-adv-x="795" 
d="M398 -9q-107 0 -185 45t-120.5 127t-42.5 194q0 111 42.5 193t120.5 126.5t185 44.5t184.5 -44.5t119.5 -126.5t42 -193q0 -112 -42 -194t-119.5 -127t-184.5 -45zM398 112q88 0 139.5 62.5t51.5 182.5t-51.5 181.5t-139.5 61.5q-89 0 -140 -61.5t-51 -181.5
q0 -121 51 -183t140 -62zM328 -68h139v-133h-139v133z" />
    <glyph glyph-name="uni1ECD" unicode="&#x1ecd;" horiz-adv-x="604" 
d="M303 -8q-82 0 -142 32t-92.5 91.5t-32.5 140.5t32.5 140t92.5 91.5t142 32.5q80 0 140 -32.5t92.5 -91.5t32.5 -140t-32.5 -140.5t-92.5 -91.5t-140 -32zM303 107q55 0 85 36.5t30 112.5q0 75 -30 111.5t-85 36.5q-56 0 -86.5 -36.5t-30.5 -111.5q0 -76 30 -112.5
t87 -36.5zM233 -68h139v-133h-139v133z" />
    <glyph glyph-name="uni1ECE" unicode="&#x1ece;" horiz-adv-x="795" 
d="M398 -9q-107 0 -185 45t-120.5 127t-42.5 194q0 111 42.5 193t120.5 126.5t185 44.5t184.5 -44.5t119.5 -126.5t42 -193q0 -112 -42 -194t-119.5 -127t-184.5 -45zM398 112q88 0 139.5 62.5t51.5 182.5t-51.5 181.5t-139.5 61.5q-89 0 -140 -61.5t-51 -181.5
q0 -121 51 -183t140 -62zM434 786v-13h-75v22q0 17 10 26t23 14.5t23 10t10 11.5q0 8 -7 12.5t-27 4.5q-10 0 -24.5 -2.5t-32.5 -7.5l-19 52q18 7 41.5 12.5t54.5 5.5q49 0 77.5 -19t28.5 -45q0 -20 -12.5 -31t-29 -18t-29 -14.5t-12.5 -20.5z" />
    <glyph glyph-name="uni1ECF" unicode="&#x1ecf;" horiz-adv-x="604" 
d="M303 -8q-82 0 -142 32t-92.5 91.5t-32.5 140.5t32.5 140t92.5 91.5t142 32.5q80 0 140 -32.5t92.5 -91.5t32.5 -140t-32.5 -140.5t-92.5 -91.5t-140 -32zM303 107q55 0 85 36.5t30 112.5q0 75 -30 111.5t-85 36.5q-56 0 -86.5 -36.5t-30.5 -111.5q0 -76 30 -112.5
t87 -36.5zM342 593v-21h-76v25q0 20 9 33.5t21 23.5t20.5 18.5t8.5 18.5q0 11 -8.5 17t-25.5 6q-11 0 -23 -2t-27 -7l-20 57q23 11 44.5 15t41.5 4q58 0 87 -23t29 -53q0 -24 -12 -39t-28 -26t-28.5 -21.5t-12.5 -25.5z" />
    <glyph glyph-name="uni1ED0" unicode="&#x1ed0;" horiz-adv-x="795" 
d="M398 -9q-107 0 -185 45t-120.5 127t-42.5 194q0 111 42.5 193t120.5 126.5t185 44.5t184.5 -44.5t119.5 -126.5t42 -193q0 -112 -42 -194t-119.5 -127t-184.5 -45zM398 112q88 0 139.5 62.5t51.5 182.5t-51.5 181.5t-139.5 61.5q-89 0 -140 -61.5t-51 -181.5
q0 -121 51 -183t140 -62zM332 773h-112l134 140h85l134 -140h-112l-64 71zM565 881h-74l73 142h125z" />
    <glyph glyph-name="uni1ED1" unicode="&#x1ed1;" horiz-adv-x="604" 
d="M303 -8q-82 0 -142 32t-92.5 91.5t-32.5 140.5t32.5 140t92.5 91.5t142 32.5q80 0 140 -32.5t92.5 -91.5t32.5 -140t-32.5 -140.5t-92.5 -91.5t-140 -32zM303 107q55 0 85 36.5t30 112.5q0 75 -30 111.5t-85 36.5q-56 0 -86.5 -36.5t-30.5 -111.5q0 -76 30 -112.5
t87 -36.5zM238 572h-112l134 139h85l134 -139h-112l-64 71zM471 680h-74l73 141h125z" />
    <glyph glyph-name="uni1ED2" unicode="&#x1ed2;" horiz-adv-x="795" 
d="M398 -9q-107 0 -185 45t-120.5 127t-42.5 194q0 111 42.5 193t120.5 126.5t185 44.5t184.5 -44.5t119.5 -126.5t42 -193q0 -112 -42 -194t-119.5 -127t-184.5 -45zM398 112q88 0 139.5 62.5t51.5 182.5t-51.5 181.5t-139.5 61.5q-89 0 -140 -61.5t-51 -181.5
q0 -121 51 -183t140 -62zM332 773h-112l134 140h85l134 -140h-112l-64 71zM534 881l-123 142h126l71 -142h-74z" />
    <glyph glyph-name="uni1ED3" unicode="&#x1ed3;" horiz-adv-x="604" 
d="M303 -8q-82 0 -142 32t-92.5 91.5t-32.5 140.5t32.5 140t92.5 91.5t142 32.5q80 0 140 -32.5t92.5 -91.5t32.5 -140t-32.5 -140.5t-92.5 -91.5t-140 -32zM303 107q55 0 85 36.5t30 112.5q0 75 -30 111.5t-85 36.5q-56 0 -86.5 -36.5t-30.5 -111.5q0 -76 30 -112.5
t87 -36.5zM238 572h-112l134 139h85l134 -139h-112l-64 71zM440 680l-123 141h126l71 -141h-74z" />
    <glyph glyph-name="uni1ED4" unicode="&#x1ed4;" horiz-adv-x="795" 
d="M398 -9q-107 0 -185 45t-120.5 127t-42.5 194q0 111 42.5 193t120.5 126.5t185 44.5t184.5 -44.5t119.5 -126.5t42 -193q0 -112 -42 -194t-119.5 -127t-184.5 -45zM398 112q88 0 139.5 62.5t51.5 182.5t-51.5 181.5t-139.5 61.5q-89 0 -140 -61.5t-51 -181.5
q0 -121 51 -183t140 -62zM332 773h-112l134 140h85l134 -140h-112l-64 71zM565 890v-8h-75v20q0 15 10 24.5t23 14.5t23.5 8.5t10.5 7.5q0 6 -7.5 10t-26.5 4q-10 0 -25 -2.5t-32 -8.5l-20 51q19 7 42.5 12.5t53.5 5.5q50 0 78.5 -17t28.5 -43q0 -21 -12.5 -31t-29 -16
t-29.5 -13t-13 -19z" />
    <glyph glyph-name="uni1ED5" unicode="&#x1ed5;" horiz-adv-x="604" 
d="M303 -8q-82 0 -142 32t-92.5 91.5t-32.5 140.5t32.5 140t92.5 91.5t142 32.5q80 0 140 -32.5t92.5 -91.5t32.5 -140t-32.5 -140.5t-92.5 -91.5t-140 -32zM303 107q55 0 85 36.5t30 112.5q0 75 -30 111.5t-85 36.5q-56 0 -86.5 -36.5t-30.5 -111.5q0 -76 30 -112.5
t87 -36.5zM238 572h-112l134 139h85l134 -139h-112l-64 71zM471 689v-9h-75v20q0 17 10 26t23 14t23.5 8t10.5 8q0 4 -7.5 9t-26.5 5q-10 0 -25 -3t-32 -9l-20 51q19 8 42.5 13.5t53.5 5.5q50 0 78.5 -17.5t28.5 -44.5q0 -19 -12.5 -29.5t-29 -16.5t-29.5 -12.5t-13 -18.5z
" />
    <glyph glyph-name="uni1ED6" unicode="&#x1ed6;" horiz-adv-x="795" 
d="M398 -9q-107 0 -185 45t-120.5 127t-42.5 194q0 111 42.5 193t120.5 126.5t185 44.5t184.5 -44.5t119.5 -126.5t42 -193q0 -112 -42 -194t-119.5 -127t-184.5 -45zM398 112q88 0 139.5 62.5t51.5 182.5t-51.5 181.5t-139.5 61.5q-89 0 -140 -61.5t-51 -181.5
q0 -121 51 -183t140 -62zM332 773h-112l134 140h85l134 -140h-112l-64 71zM221 930q0 31 15 55t40 37.5t54 13.5q26 0 49.5 -8t44.5 -16.5t40 -8.5q18 0 30 7t14 23h64q0 -30 -15 -54t-40 -37.5t-54 -13.5q-26 0 -49.5 8t-44.5 16.5t-40 8.5q-18 0 -30 -7t-14 -24h-64z" />
    <glyph glyph-name="uni1ED7" unicode="&#x1ed7;" horiz-adv-x="604" 
d="M303 -8q-82 0 -142 32t-92.5 91.5t-32.5 140.5t32.5 140t92.5 91.5t142 32.5q80 0 140 -32.5t92.5 -91.5t32.5 -140t-32.5 -140.5t-92.5 -91.5t-140 -32zM303 107q55 0 85 36.5t30 112.5q0 75 -30 111.5t-85 36.5q-56 0 -86.5 -36.5t-30.5 -111.5q0 -76 30 -112.5
t87 -36.5zM238 572h-112l134 139h85l134 -139h-112l-64 71zM127 729q0 30 15 54t40 38t54 14q26 0 49.5 -8.5t44.5 -16.5t40 -8q18 0 30 7t14 23h64q0 -30 -15 -53.5t-40 -37.5t-54 -14q-26 0 -49.5 8t-44.5 16t-40 8q-18 0 -30 -7t-14 -23h-64z" />
    <glyph glyph-name="uni1ED8" unicode="&#x1ed8;" horiz-adv-x="795" 
d="M398 -9q-107 0 -185 45t-120.5 127t-42.5 194q0 111 42.5 193t120.5 126.5t185 44.5t184.5 -44.5t119.5 -126.5t42 -193q0 -112 -42 -194t-119.5 -127t-184.5 -45zM398 112q88 0 139.5 62.5t51.5 182.5t-51.5 181.5t-139.5 61.5q-89 0 -140 -61.5t-51 -181.5
q0 -121 51 -183t140 -62zM328 -68h139v-133h-139v133zM334 773h-114l134 157h85l134 -157h-114l-62 86z" />
    <glyph glyph-name="uni1ED9" unicode="&#x1ed9;" horiz-adv-x="604" 
d="M303 -8q-82 0 -142 32t-92.5 91.5t-32.5 140.5t32.5 140t92.5 91.5t142 32.5q80 0 140 -32.5t92.5 -91.5t32.5 -140t-32.5 -140.5t-92.5 -91.5t-140 -32zM303 107q55 0 85 36.5t30 112.5q0 75 -30 111.5t-85 36.5q-56 0 -86.5 -36.5t-30.5 -111.5q0 -76 30 -112.5
t87 -36.5zM233 -68h139v-133h-139v133zM244 572h-118l131 206h91l131 -206h-118l-58 117z" />
    <glyph glyph-name="uni1EDA" unicode="&#x1eda;" horiz-adv-x="795" 
d="M398 -9q-107 0 -185 45t-120.5 127t-42.5 194q0 111 42.5 193t121 126.5t186.5 44.5q36 0 64 -4.5t61 -4.5q49 0 69 23t20 80v19h130v-38q0 -46 -19.5 -82t-54 -56t-79.5 -20l15 21q69 -46 103.5 -123t34.5 -179q0 -112 -42 -194t-119.5 -127t-184.5 -45zM398 112
q88 0 139.5 62.5t51.5 182.5t-51.5 181.5t-139.5 61.5q-89 0 -140 -61.5t-51 -181.5q0 -121 51 -183t140 -62zM443 773h-93l103 157h140z" />
    <glyph glyph-name="uni1EDB" unicode="&#x1edb;" horiz-adv-x="604" 
d="M303 -8q-82 0 -142 32t-92.5 91.5t-32.5 139.5q0 82 32.5 141t92 91.5t139.5 32.5q15 0 32.5 -2.5t32 -4.5t20.5 -2q21 0 38.5 8t28.5 31t11 66v20h130v-38q0 -65 -37 -109t-100 -52l16 28q48 -33 72 -88t24 -122q0 -80 -32.5 -139.5t-92.5 -91.5t-140 -32zM303 107
q55 0 85 36.5t30 112.5q0 75 -30 111.5t-85 36.5q-56 0 -86.5 -36.5t-30.5 -111.5q0 -76 30 -112.5t87 -36.5zM349 572h-93l98 206h149z" />
    <glyph glyph-name="uni1EDC" unicode="&#x1edc;" horiz-adv-x="795" 
d="M398 -9q-107 0 -185 45t-120.5 127t-42.5 194q0 111 42.5 193t121 126.5t186.5 44.5q36 0 64 -4.5t61 -4.5q49 0 69 23t20 80v19h130v-38q0 -46 -19.5 -82t-54 -56t-79.5 -20l15 21q69 -46 103.5 -123t34.5 -179q0 -112 -42 -194t-119.5 -127t-184.5 -45zM398 112
q88 0 139.5 62.5t51.5 182.5t-51.5 181.5t-139.5 61.5q-89 0 -140 -61.5t-51 -181.5q0 -121 51 -183t140 -62zM350 773l-150 157h140l103 -157h-93z" />
    <glyph glyph-name="uni1EDD" unicode="&#x1edd;" horiz-adv-x="604" 
d="M303 -8q-82 0 -142 32t-92.5 91.5t-32.5 139.5q0 82 32.5 141t92 91.5t139.5 32.5q15 0 32.5 -2.5t32 -4.5t20.5 -2q21 0 38.5 8t28.5 31t11 66v20h130v-38q0 -65 -37 -109t-100 -52l16 28q48 -33 72 -88t24 -122q0 -80 -32.5 -139.5t-92.5 -91.5t-140 -32zM303 107
q55 0 85 36.5t30 112.5q0 75 -30 111.5t-85 36.5q-56 0 -86.5 -36.5t-30.5 -111.5q0 -76 30 -112.5t87 -36.5zM256 572l-154 206h149l98 -206h-93z" />
    <glyph glyph-name="uni1EDE" unicode="&#x1ede;" horiz-adv-x="795" 
d="M398 -9q-107 0 -185 45t-120.5 127t-42.5 194q0 111 42.5 193t121 126.5t186.5 44.5q36 0 64 -4.5t61 -4.5q49 0 69 23t20 80v19h130v-38q0 -46 -19.5 -82t-54 -56t-79.5 -20l15 21q69 -46 103.5 -123t34.5 -179q0 -112 -42 -194t-119.5 -127t-184.5 -45zM398 112
q88 0 139.5 62.5t51.5 182.5t-51.5 181.5t-139.5 61.5q-89 0 -140 -61.5t-51 -181.5q0 -121 51 -183t140 -62zM434 786v-13h-75v22q0 17 10 26t23 14.5t23 10t10 11.5q0 8 -7 12.5t-27 4.5q-10 0 -24.5 -2.5t-32.5 -7.5l-19 52q18 7 41.5 12.5t54.5 5.5q49 0 77.5 -19
t28.5 -45q0 -20 -12.5 -31t-29 -18t-29 -14.5t-12.5 -20.5z" />
    <glyph glyph-name="uni1EDF" unicode="&#x1edf;" horiz-adv-x="604" 
d="M303 -8q-82 0 -142 32t-92.5 91.5t-32.5 139.5q0 82 32.5 141t92 91.5t139.5 32.5q15 0 32.5 -2.5t32 -4.5t20.5 -2q21 0 38.5 8t28.5 31t11 66v20h130v-38q0 -65 -37 -109t-100 -52l16 28q48 -33 72 -88t24 -122q0 -80 -32.5 -139.5t-92.5 -91.5t-140 -32zM303 107
q55 0 85 36.5t30 112.5q0 75 -30 111.5t-85 36.5q-56 0 -86.5 -36.5t-30.5 -111.5q0 -76 30 -112.5t87 -36.5zM342 593v-21h-76v25q0 20 9 33.5t21 23.5t20.5 18.5t8.5 18.5q0 11 -8.5 17t-25.5 6q-11 0 -23 -2t-27 -7l-20 57q23 11 44.5 15t41.5 4q58 0 87 -23t29 -53
q0 -24 -12 -39t-28 -26t-28.5 -21.5t-12.5 -25.5z" />
    <glyph glyph-name="uni1EE0" unicode="&#x1ee0;" horiz-adv-x="795" 
d="M398 -9q-107 0 -185 45t-120.5 127t-42.5 194q0 111 42.5 193t121 126.5t186.5 44.5q36 0 64 -4.5t61 -4.5q49 0 69 23t20 80v19h130v-38q0 -46 -19.5 -82t-54 -56t-79.5 -20l15 21q69 -46 103.5 -123t34.5 -179q0 -112 -42 -194t-119.5 -127t-184.5 -45zM398 112
q88 0 139.5 62.5t51.5 182.5t-51.5 181.5t-139.5 61.5q-89 0 -140 -61.5t-51 -181.5q0 -121 51 -183t140 -62zM221 780q0 76 32 111.5t77 35.5q26 0 49.5 -13t44.5 -26.5t40 -13.5q18 0 30 13t14 37h64q0 -77 -32 -112t-77 -35q-26 0 -49.5 13t-44.5 26t-40 13
q-18 0 -30 -13t-14 -36h-64z" />
    <glyph glyph-name="uni1EE1" unicode="&#x1ee1;" horiz-adv-x="604" 
d="M303 -8q-82 0 -142 32t-92.5 91.5t-32.5 139.5q0 82 32.5 141t92 91.5t139.5 32.5q15 0 32.5 -2.5t32 -4.5t20.5 -2q21 0 38.5 8t28.5 31t11 66v20h130v-38q0 -65 -37 -109t-100 -52l16 28q48 -33 72 -88t24 -122q0 -80 -32.5 -139.5t-92.5 -91.5t-140 -32zM303 107
q55 0 85 36.5t30 112.5q0 75 -30 111.5t-85 36.5q-56 0 -86.5 -36.5t-30.5 -111.5q0 -76 30 -112.5t87 -36.5zM127 604q0 76 32 111t77 35q26 0 49.5 -13t44.5 -26t40 -13q18 0 30 13t14 36h64q0 -76 -32 -111t-77 -35q-26 0 -49.5 13t-44.5 26t-40 13q-18 0 -30 -13
t-14 -36h-64z" />
    <glyph glyph-name="uni1EE2" unicode="&#x1ee2;" horiz-adv-x="795" 
d="M398 -9q-107 0 -185 45t-120.5 127t-42.5 194q0 111 42.5 193t121 126.5t186.5 44.5q36 0 64 -4.5t61 -4.5q49 0 69 23t20 80v19h130v-38q0 -46 -19.5 -82t-54 -56t-79.5 -20l15 21q69 -46 103.5 -123t34.5 -179q0 -112 -42 -194t-119.5 -127t-184.5 -45zM398 112
q88 0 139.5 62.5t51.5 182.5t-51.5 181.5t-139.5 61.5q-89 0 -140 -61.5t-51 -181.5q0 -121 51 -183t140 -62zM328 -68h139v-133h-139v133z" />
    <glyph glyph-name="uni1EE3" unicode="&#x1ee3;" horiz-adv-x="604" 
d="M303 -8q-82 0 -142 32t-92.5 91.5t-32.5 139.5q0 82 32.5 141t92 91.5t139.5 32.5q15 0 32.5 -2.5t32 -4.5t20.5 -2q21 0 38.5 8t28.5 31t11 66v20h130v-38q0 -65 -37 -109t-100 -52l16 28q48 -33 72 -88t24 -122q0 -80 -32.5 -139.5t-92.5 -91.5t-140 -32zM303 107
q55 0 85 36.5t30 112.5q0 75 -30 111.5t-85 36.5q-56 0 -86.5 -36.5t-30.5 -111.5q0 -76 30 -112.5t87 -36.5zM233 -68h139v-133h-139v133z" />
    <glyph glyph-name="uni1EE4" unicode="&#x1ee4;" horiz-adv-x="746" 
d="M374 -9q-151 0 -228.5 77t-77.5 226v418h152v-425q0 -85 39 -130t115 -45q73 0 112 45t39 130v425h155v-418q0 -148 -79 -225.5t-227 -77.5zM304 -68h139v-133h-139v133z" />
    <glyph glyph-name="uni1EE5" unicode="&#x1ee5;" horiz-adv-x="606" 
d="M247 -8q-95 0 -142 53t-47 160v302h151v-305q0 -47 19.5 -69.5t60.5 -22.5q46 0 75 32t29 85v280h152v-507h-147v101l13 -1q-22 -53 -64.5 -80.5t-99.5 -27.5zM233 -68h139v-133h-139v133z" />
    <glyph glyph-name="uni1EE6" unicode="&#x1ee6;" horiz-adv-x="746" 
d="M374 -9q-151 0 -228.5 77t-77.5 226v418h152v-425q0 -85 39 -130t115 -45q73 0 112 45t39 130v425h155v-418q0 -148 -79 -225.5t-227 -77.5zM411 786v-13h-75v22q0 17 10 26t23 14.5t23 10t10 11.5q0 8 -7 12.5t-27 4.5q-10 0 -24.5 -2.5t-32.5 -7.5l-19 52
q18 7 41.5 12.5t54.5 5.5q49 0 77.5 -19t28.5 -45q0 -20 -12.5 -31t-29 -18t-29 -14.5t-12.5 -20.5z" />
    <glyph glyph-name="uni1EE7" unicode="&#x1ee7;" horiz-adv-x="606" 
d="M247 -8q-95 0 -142 53t-47 160v302h151v-305q0 -47 19.5 -69.5t60.5 -22.5q46 0 75 32t29 85v280h152v-507h-147v101l13 -1q-22 -53 -64.5 -80.5t-99.5 -27.5zM342 593v-21h-76v25q0 20 9 33.5t21 23.5t20.5 18.5t8.5 18.5q0 11 -8.5 17t-25.5 6q-11 0 -23 -2t-27 -7
l-20 57q23 11 44.5 15t41.5 4q58 0 87 -23t29 -53q0 -24 -12 -39t-28 -26t-28.5 -21.5t-12.5 -25.5z" />
    <glyph glyph-name="uni1EE8" unicode="&#x1ee8;" horiz-adv-x="746" 
d="M662 834h131v-38q0 -67 -40.5 -110t-106.5 -47l34 43v-388q0 -148 -79 -225.5t-227 -77.5q-151 0 -228.5 77t-77.5 226v418h152v-425q0 -85 39 -130t115 -45q73 0 112 45t39 130v425h45q51 0 71.5 22.5t20.5 80.5v19zM420 773h-93l103 157h140z" />
    <glyph glyph-name="uni1EE9" unicode="&#x1ee9;" horiz-adv-x="631" 
d="M531 636h130v-38q0 -46 -18.5 -81.5t-51.5 -56.5t-78 -24l32 50v-486h-147v101l13 -1q-22 -53 -64.5 -80.5t-99.5 -27.5q-95 0 -142 53t-47 160v302h151v-305q0 -47 19.5 -69.5t60.5 -22.5q46 0 75 32t29 85v280h43q52 0 73.5 24.5t21.5 84.5v20zM349 572h-93l98 206h149
z" />
    <glyph glyph-name="uni1EEA" unicode="&#x1eea;" horiz-adv-x="746" 
d="M662 834h131v-38q0 -67 -40.5 -110t-106.5 -47l34 43v-388q0 -148 -79 -225.5t-227 -77.5q-151 0 -228.5 77t-77.5 226v418h152v-425q0 -85 39 -130t115 -45q73 0 112 45t39 130v425h45q51 0 71.5 22.5t20.5 80.5v19zM327 773l-150 157h140l103 -157h-93z" />
    <glyph glyph-name="uni1EEB" unicode="&#x1eeb;" horiz-adv-x="631" 
d="M531 636h130v-38q0 -46 -18.5 -81.5t-51.5 -56.5t-78 -24l32 50v-486h-147v101l13 -1q-22 -53 -64.5 -80.5t-99.5 -27.5q-95 0 -142 53t-47 160v302h151v-305q0 -47 19.5 -69.5t60.5 -22.5q46 0 75 32t29 85v280h43q52 0 73.5 24.5t21.5 84.5v20zM256 572l-154 206h149
l98 -206h-93z" />
    <glyph glyph-name="uni1EEC" unicode="&#x1eec;" horiz-adv-x="746" 
d="M662 834h131v-38q0 -67 -40.5 -110t-106.5 -47l34 43v-388q0 -148 -79 -225.5t-227 -77.5q-151 0 -228.5 77t-77.5 226v418h152v-425q0 -85 39 -130t115 -45q73 0 112 45t39 130v425h45q51 0 71.5 22.5t20.5 80.5v19zM411 786v-13h-75v22q0 17 10 26t23 14.5t23 10
t10 11.5q0 8 -7 12.5t-27 4.5q-10 0 -24.5 -2.5t-32.5 -7.5l-19 52q18 7 41.5 12.5t54.5 5.5q49 0 77.5 -19t28.5 -45q0 -20 -12.5 -31t-29 -18t-29 -14.5t-12.5 -20.5z" />
    <glyph glyph-name="uni1EED" unicode="&#x1eed;" horiz-adv-x="631" 
d="M531 636h130v-38q0 -46 -18.5 -81.5t-51.5 -56.5t-78 -24l32 50v-486h-147v101l13 -1q-22 -53 -64.5 -80.5t-99.5 -27.5q-95 0 -142 53t-47 160v302h151v-305q0 -47 19.5 -69.5t60.5 -22.5q46 0 75 32t29 85v280h43q52 0 73.5 24.5t21.5 84.5v20zM342 593v-21h-76v25
q0 20 9 33.5t21 23.5t20.5 18.5t8.5 18.5q0 11 -8.5 17t-25.5 6q-11 0 -23 -2t-27 -7l-20 57q23 11 44.5 15t41.5 4q58 0 87 -23t29 -53q0 -24 -12 -39t-28 -26t-28.5 -21.5t-12.5 -25.5z" />
    <glyph glyph-name="uni1EEE" unicode="&#x1eee;" horiz-adv-x="746" 
d="M662 834h131v-38q0 -67 -40.5 -110t-106.5 -47l34 43v-388q0 -148 -79 -225.5t-227 -77.5q-151 0 -228.5 77t-77.5 226v418h152v-425q0 -85 39 -130t115 -45q73 0 112 45t39 130v425h45q51 0 71.5 22.5t20.5 80.5v19zM198 780q0 76 32 111.5t77 35.5q26 0 49.5 -13
t44.5 -26.5t40 -13.5q18 0 30 13t14 37h64q0 -77 -32 -112t-77 -35q-26 0 -49.5 13t-44.5 26t-40 13q-18 0 -30 -13t-14 -36h-64z" />
    <glyph glyph-name="uni1EEF" unicode="&#x1eef;" horiz-adv-x="631" 
d="M531 636h130v-38q0 -46 -18.5 -81.5t-51.5 -56.5t-78 -24l32 50v-486h-147v101l13 -1q-22 -53 -64.5 -80.5t-99.5 -27.5q-95 0 -142 53t-47 160v302h151v-305q0 -47 19.5 -69.5t60.5 -22.5q46 0 75 32t29 85v280h43q52 0 73.5 24.5t21.5 84.5v20zM127 604q0 76 32 111
t77 35q26 0 49.5 -13t44.5 -26t40 -13q18 0 30 13t14 36h64q0 -76 -32 -111t-77 -35q-26 0 -49.5 13t-44.5 26t-40 13q-18 0 -30 -13t-14 -36h-64z" />
    <glyph glyph-name="uni1EF0" unicode="&#x1ef0;" horiz-adv-x="746" 
d="M662 834h131v-38q0 -67 -40.5 -110t-106.5 -47l34 43v-388q0 -148 -79 -225.5t-227 -77.5q-151 0 -228.5 77t-77.5 226v418h152v-425q0 -85 39 -130t115 -45q73 0 112 45t39 130v425h45q51 0 71.5 22.5t20.5 80.5v19zM304 -68h139v-133h-139v133z" />
    <glyph glyph-name="uni1EF1" unicode="&#x1ef1;" horiz-adv-x="631" 
d="M531 636h130v-38q0 -46 -18.5 -81.5t-51.5 -56.5t-78 -24l32 50v-486h-147v101l13 -1q-22 -53 -64.5 -80.5t-99.5 -27.5q-95 0 -142 53t-47 160v302h151v-305q0 -47 19.5 -69.5t60.5 -22.5q46 0 75 32t29 85v280h43q52 0 73.5 24.5t21.5 84.5v20zM233 -68h139v-133h-139
v133z" />
    <glyph glyph-name="Ygrave" unicode="&#x1ef2;" horiz-adv-x="642" 
d="M242 0v320l33 -90l-326 482h177l215 -337h-42l217 337h178l-326 -482l31 90v-320h-157zM274 773l-150 157h140l103 -157h-93z" />
    <glyph glyph-name="ygrave" unicode="&#x1ef3;" horiz-adv-x="551" 
d="M58 -228l-35 116q47 9 77.5 22.5t50.5 33.5t33 49l39 87l40 59l149 368h149l-233 -533q-31 -70 -71 -111t-90 -62t-109 -29zM227 -38l-237 545h157l146 -368zM228 572l-154 206h149l98 -206h-93z" />
    <glyph glyph-name="uni1EF4" unicode="&#x1ef4;" horiz-adv-x="642" 
d="M242 0v320l33 -90l-326 482h177l215 -337h-42l217 337h178l-326 -482l31 90v-320h-157zM251 -68h139v-133h-139v133z" />
    <glyph glyph-name="uni1EF5" unicode="&#x1ef5;" horiz-adv-x="551" 
d="M58 -228l-35 116q47 9 77.5 22.5t50.5 33.5t33 49l39 87l40 59l149 368h149l-233 -533q-31 -70 -71 -111t-90 -62t-109 -29zM227 -38l-237 545h157l146 -368zM364 -68h139v-133h-139v133z" />
    <glyph glyph-name="uni1EF6" unicode="&#x1ef6;" horiz-adv-x="642" 
d="M242 0v320l33 -90l-326 482h177l215 -337h-42l217 337h178l-326 -482l31 90v-320h-157zM358 786v-13h-75v22q0 17 10 26t23 14.5t23 10t10 11.5q0 8 -7 12.5t-27 4.5q-10 0 -24.5 -2.5t-32.5 -7.5l-19 52q18 7 41.5 12.5t54.5 5.5q49 0 77.5 -19t28.5 -45
q0 -20 -12.5 -31t-29 -18t-29 -14.5t-12.5 -20.5z" />
    <glyph glyph-name="uni1EF7" unicode="&#x1ef7;" horiz-adv-x="551" 
d="M58 -228l-35 116q47 9 77.5 22.5t50.5 33.5t33 49l39 87l40 59l149 368h149l-233 -533q-31 -70 -71 -111t-90 -62t-109 -29zM227 -38l-237 545h157l146 -368zM314 593v-21h-76v25q0 20 9 33.5t21 23.5t20.5 18.5t8.5 18.5q0 11 -8.5 17t-25.5 6q-11 0 -23 -2t-27 -7
l-20 57q23 11 44.5 15t41.5 4q58 0 87 -23t29 -53q0 -24 -12 -39t-28 -26t-28.5 -21.5t-12.5 -25.5z" />
    <glyph glyph-name="uni1EF8" unicode="&#x1ef8;" horiz-adv-x="642" 
d="M242 0v320l33 -90l-326 482h177l215 -337h-42l217 337h178l-326 -482l31 90v-320h-157zM145 780q0 76 32 111.5t77 35.5q26 0 49.5 -13t44.5 -26.5t40 -13.5q18 0 30 13t14 37h64q0 -77 -32 -112t-77 -35q-26 0 -49.5 13t-44.5 26t-40 13q-18 0 -30 -13t-14 -36h-64z" />
    <glyph glyph-name="uni1EF9" unicode="&#x1ef9;" horiz-adv-x="551" 
d="M58 -228l-35 116q47 9 77.5 22.5t50.5 33.5t33 49l39 87l40 59l149 368h149l-233 -533q-31 -70 -71 -111t-90 -62t-109 -29zM227 -38l-237 545h157l146 -368zM99 604q0 76 32 111t77 35q26 0 49.5 -13t44.5 -26t40 -13q18 0 30 13t14 36h64q0 -76 -32 -111t-77 -35
q-26 0 -49.5 13t-44.5 26t-40 13q-18 0 -30 -13t-14 -36h-64z" />
    <glyph glyph-name="uni2007" unicode="&#x2007;" horiz-adv-x="606" 
 />
    <glyph glyph-name="uni2008" unicode="&#x2008;" horiz-adv-x="263" 
 />
    <glyph glyph-name="uni2009" unicode="&#x2009;" horiz-adv-x="202" 
 />
    <glyph glyph-name="uni200A" unicode="&#x200a;" horiz-adv-x="101" 
 />
    <glyph glyph-name="uni200B" unicode="&#x200b;" 
 />
    <glyph glyph-name="uni2010" unicode="&#x2010;" horiz-adv-x="444" 
d="M67 211v118h311v-118h-311z" />
    <glyph glyph-name="figuredash" unicode="&#x2012;" horiz-adv-x="606" 
d="M67 227v88h472v-88h-472z" />
    <glyph glyph-name="endash" unicode="&#x2013;" horiz-adv-x="505" 
d="M0 227v88h505v-88h-505z" />
    <glyph glyph-name="emdash" unicode="&#x2014;" horiz-adv-x="1010" 
d="M0 227v88h1010v-88h-1010z" />
    <glyph glyph-name="uni2015" unicode="&#x2015;" horiz-adv-x="1010" 
d="M0 227v88h1010v-88h-1010z" />
    <glyph glyph-name="quoteleft" unicode="&#x2018;" horiz-adv-x="263" 
d="M140 720l59 -47q-35 -35 -50.5 -66.5t-15.5 -67.5l-34 37h114v-162h-164v103q0 57 20.5 104.5t70.5 98.5z" />
    <glyph glyph-name="quoteright" unicode="&#x2019;" horiz-adv-x="263" 
d="M121 406l-58 47q35 36 50 67.5t15 66.5l36 -36h-115v161h164v-103q0 -58 -20.5 -105t-71.5 -98z" />
    <glyph glyph-name="quotesinglbase" unicode="&#x201a;" horiz-adv-x="263" 
d="M121 -144l-58 46q35 35 50 66.5t15 67.5l36 -36h-115v161h164v-104q0 -56 -20.5 -104t-71.5 -97z" />
    <glyph glyph-name="quotedblleft" unicode="&#x201c;" horiz-adv-x="471" 
d="M140 720l59 -47q-35 -35 -50.5 -66.5t-15.5 -67.5l-34 37h114v-162h-164v103q0 57 20.5 104.5t70.5 98.5zM349 720l59 -47q-35 -35 -50.5 -66.5t-15.5 -67.5l-34 37h114v-162h-164v103q0 57 20.5 104.5t70.5 98.5z" />
    <glyph glyph-name="quotedblright" unicode="&#x201d;" horiz-adv-x="471" 
d="M121 406l-58 47q35 36 50 67.5t15 66.5l36 -36h-115v161h164v-103q0 -58 -20.5 -105t-71.5 -98zM330 406l-58 47q35 36 50 67.5t15 66.5l36 -36h-115v161h164v-103q0 -58 -20.5 -105t-71.5 -98z" />
    <glyph glyph-name="quotedblbase" unicode="&#x201e;" horiz-adv-x="471" 
d="M121 -144l-58 46q35 35 50 66.5t15 67.5l36 -36h-115v161h164v-104q0 -56 -20.5 -104t-71.5 -97zM330 -144l-58 46q35 35 50 66.5t15 67.5l36 -36h-115v161h164v-104q0 -56 -20.5 -104t-71.5 -97z" />
    <glyph glyph-name="dagger" unicode="&#x2020;" horiz-adv-x="361" 
d="M236 720v-121h104v-96h-104v-336h-111v336h-105v96h105v121h111z" />
    <glyph glyph-name="daggerdbl" unicode="&#x2021;" horiz-adv-x="361" 
d="M236 720v-119h104v-96h-104v-124h104v-94h-104v-121h-111v121h-105v94h105v124h-105v96h105v119h111z" />
    <glyph glyph-name="bullet" unicode="&#x2022;" horiz-adv-x="529" 
d="M265 89q-49 0 -91 23.5t-67 64.5t-25 91q0 46 23.5 87t65 66.5t94.5 25.5q49 0 90 -23.5t66.5 -63.5t25.5 -92q0 -49 -24.5 -90t-66 -65t-91.5 -24z" />
    <glyph glyph-name="ellipsis" unicode="&#x2026;" horiz-adv-x="786" 
d="M49 161h164v-161h-164v161zM312 161h162v-161h-162v161zM574 161h162v-161h-162v161z" />
    <glyph glyph-name="perthousand" unicode="&#x2030;" horiz-adv-x="1280" 
d="M190 281q-80 0 -126.5 55t-46.5 164q0 107 46.5 161.5t126.5 54.5t126 -55t46 -162q0 -108 -46 -163t-126 -55zM190 376q24 0 35.5 28t11.5 95q0 66 -12 94t-35 28q-24 0 -36 -28t-12 -94q0 -67 12 -95t36 -28zM171 0l413 712h146l-413 -712h-146zM710 -4
q-80 0 -126.5 55t-46.5 164q0 107 46.5 161.5t126.5 54.5t126 -55t46 -162q0 -108 -46 -163t-126 -55zM710 91q24 0 35.5 28t11.5 95q0 66 -12 94t-35 28q-24 0 -36 -28t-12 -94q0 -67 12 -95t36 -28zM1090 -4q-80 0 -126.5 55t-46.5 164q0 107 46.5 161.5t126.5 54.5
t126 -55t46 -162q0 -108 -46 -163t-126 -55zM1090 91q24 0 35.5 28t11.5 95q0 66 -12 94t-35 28q-24 0 -36 -28t-12 -94q0 -67 12 -95t36 -28z" />
    <glyph glyph-name="minute" unicode="&#x2032;" horiz-adv-x="257" 
d="M79 411l-38 301h174l-35 -301h-101z" />
    <glyph glyph-name="second" unicode="&#x2033;" horiz-adv-x="473" 
d="M79 411l-38 301h174l-35 -301h-101zM295 411l-38 301h174l-35 -301h-101z" />
    <glyph glyph-name="guilsinglleft" unicode="&#x2039;" horiz-adv-x="305" 
d="M157 85l-136 182l136 184h126l-131 -183l130 -183h-125z" />
    <glyph glyph-name="guilsinglright" unicode="&#x203a;" horiz-adv-x="305" 
d="M149 85h-125l130 183l-132 183h127l135 -184z" />
    <glyph glyph-name="fraction" unicode="&#x2044;" horiz-adv-x="202" 
d="M-58 -30l-98 57l416 715l97 -57z" />
    <glyph glyph-name="uni2070" unicode="&#x2070;" horiz-adv-x="380" 
d="M190 281q-80 0 -126.5 55t-46.5 164q0 107 46.5 161.5t126.5 54.5t126 -55t46 -162q0 -108 -46 -163t-126 -55zM190 376q24 0 35.5 28t11.5 95q0 66 -12 94t-35 28q-24 0 -36 -28t-12 -94q0 -67 12 -95t36 -28z" />
    <glyph glyph-name="uni2074" unicode="&#x2074;" horiz-adv-x="380" 
d="M200 285v290l19 6l-121 -163l-5 25h281v-94h-362v90l201 273h101v-427h-114z" />
    <glyph glyph-name="uni2075" unicode="&#x2075;" horiz-adv-x="380" 
d="M186 280q-40 0 -83.5 11t-72.5 28l22 94q56 -33 121 -33q35 0 51 11t16 33t-15.5 33t-47.5 11q-20 0 -38.5 -4.5t-37.5 -11.5h-57v260h291v-100h-176v-75l-23 2q20 15 41.5 21t46.5 6q57 0 97 -35t40 -101q0 -71 -50 -110.5t-125 -39.5z" />
    <glyph glyph-name="uni2076" unicode="&#x2076;" horiz-adv-x="380" 
d="M198 281q-51 0 -91 22t-63 69t-23 120q0 72 25.5 122t70.5 76t103 26q30 0 65 -9t68 -30l-21 -94q-28 16 -54.5 25t-55.5 9q-28 0 -46 -11t-26.5 -37t-8.5 -69v-16l-19 22q14 27 43.5 40.5t60.5 13.5q35 0 65.5 -14.5t49.5 -44t19 -74.5q0 -71 -46.5 -108.5t-115.5 -37.5
zM198 369q25 0 38.5 13.5t13.5 38.5q0 26 -13 39t-37 13q-25 0 -38.5 -13t-13.5 -39q0 -25 13.5 -38.5t36.5 -13.5z" />
    <glyph glyph-name="uni2077" unicode="&#x2077;" horiz-adv-x="380" 
d="M184 284l-147 1l191 349l-1 -27h-199v105h324v-104z" />
    <glyph glyph-name="uni2078" unicode="&#x2078;" horiz-adv-x="380" 
d="M190 280q-79 0 -127.5 32t-48.5 89q0 44 28.5 73.5t85.5 35.5v-11q-51 9 -77 37.5t-26 65.5q0 53 46 83.5t119 30.5t119 -30.5t46 -83.5q0 -37 -25.5 -66.5t-76.5 -34.5l1 9q55 -7 83 -36.5t28 -72.5q0 -57 -48 -89t-127 -32zM190 370q28 0 43.5 11.5t15.5 31.5
q0 37 -59 52q-31 -7 -46 -19.5t-15 -32.5t16.5 -31.5t44.5 -11.5zM190 537q24 7 37.5 18t13.5 31t-14.5 30t-36.5 10t-37 -10t-15 -30t15.5 -31t36.5 -18z" />
    <glyph glyph-name="uni2079" unicode="&#x2079;" horiz-adv-x="380" 
d="M182 716q51 0 91 -22t62.5 -68.5t22.5 -120.5q0 -72 -25 -122t-70 -76t-103 -26q-30 0 -65 9t-68 30l21 94q28 -16 54.5 -25t55.5 -9q28 0 45.5 11t26 37t8.5 69v16l20 -22q-14 -26 -43.5 -39.5t-60.5 -13.5q-35 0 -65.5 14t-49.5 43.5t-19 74.5q0 71 46.5 108.5
t115.5 37.5zM182 628q-25 0 -39 -13.5t-14 -38.5t13.5 -38.5t37.5 -13.5q25 0 38.5 13.5t13.5 38.5t-13.5 38.5t-36.5 13.5z" />
    <glyph glyph-name="uni2080" unicode="&#x2080;" horiz-adv-x="380" 
d="M190 -4q-80 0 -126.5 55t-46.5 164q0 107 46.5 161.5t126.5 54.5t126 -55t46 -162q0 -108 -46 -163t-126 -55zM190 91q24 0 35.5 28t11.5 95q0 66 -12 94t-35 28q-24 0 -36 -28t-12 -94q0 -67 12 -95t36 -28z" />
    <glyph glyph-name="uni2081" unicode="&#x2081;" horiz-adv-x="380" 
d="M153 63v247l53 8l-130 -68v116l115 61h91v-364h-129zM71 0v101h292v-101h-292z" />
    <glyph glyph-name="uni2082" unicode="&#x2082;" horiz-adv-x="380" 
d="M43 0v95l133 140q16 18 25.5 33.5t9.5 30.5q0 16 -11 25t-36 9q-26 0 -56 -9.5t-57 -25.5l-22 94q30 17 74 28t84 11q70 0 112.5 -34t42.5 -89q0 -35 -17 -67.5t-65 -75.5l-96 -88l-8 24h195v-101h-308z" />
    <glyph glyph-name="uni2083" unicode="&#x2083;" horiz-adv-x="380" 
d="M183 -5q-42 0 -86 10.5t-73 28.5l20 94q29 -16 60.5 -25.5t67.5 -9.5q32 0 46 9.5t14 26.5q0 19 -13.5 28t-41.5 9h-72v99h60q29 0 42 8t13 27q0 15 -12.5 24t-37.5 9q-28 0 -60 -9.5t-59 -25.5l-22 94q30 17 73 28t78 11q80 0 120.5 -35t40.5 -84q0 -34 -19 -59.5
t-55 -34.5l2 4q39 -10 62 -36.5t23 -67.5q0 -33 -19 -61t-57 -45t-95 -17z" />
    <glyph glyph-name="uni2084" unicode="&#x2084;" horiz-adv-x="380" 
d="M200 0v290l19 6l-121 -163l-5 25h281v-94h-362v90l201 273h101v-427h-114z" />
    <glyph glyph-name="uni2085" unicode="&#x2085;" horiz-adv-x="380" 
d="M186 -5q-40 0 -83.5 11t-72.5 28l22 94q56 -33 121 -33q35 0 51 11t16 33t-15.5 33t-47.5 11q-20 0 -38.5 -4.5t-37.5 -11.5h-57v260h291v-100h-176v-75l-23 2q20 15 41.5 21t46.5 6q57 0 97 -35t40 -101q0 -71 -50 -110.5t-125 -39.5z" />
    <glyph glyph-name="uni2086" unicode="&#x2086;" horiz-adv-x="380" 
d="M198 -4q-51 0 -91 22t-63 69t-23 120q0 72 25.5 122t70.5 76t103 26q30 0 65 -9t68 -30l-21 -94q-28 16 -54.5 25t-55.5 9q-28 0 -46 -11t-26.5 -37t-8.5 -69v-16l-19 22q14 27 43.5 40.5t60.5 13.5q35 0 65.5 -14.5t49.5 -44t19 -74.5q0 -71 -46.5 -108.5t-115.5 -37.5z
M198 84q25 0 38.5 13.5t13.5 38.5q0 26 -13 39t-37 13q-25 0 -38.5 -13t-13.5 -39q0 -25 13.5 -38.5t36.5 -13.5z" />
    <glyph glyph-name="uni2087" unicode="&#x2087;" horiz-adv-x="380" 
d="M184 -1l-147 1l191 349l-1 -27h-199v105h324v-104z" />
    <glyph glyph-name="uni2088" unicode="&#x2088;" horiz-adv-x="380" 
d="M190 -5q-79 0 -127.5 32t-48.5 89q0 44 28.5 73.5t85.5 35.5v-11q-51 9 -77 37.5t-26 65.5q0 53 46 83.5t119 30.5t119 -30.5t46 -83.5q0 -37 -25.5 -66.5t-76.5 -34.5l1 9q55 -7 83 -36.5t28 -72.5q0 -57 -48 -89t-127 -32zM190 85q28 0 43.5 11.5t15.5 31.5
q0 37 -59 52q-31 -7 -46 -19.5t-15 -32.5t16.5 -31.5t44.5 -11.5zM190 252q24 7 37.5 18t13.5 31t-14.5 30t-36.5 10t-37 -10t-15 -30t15.5 -31t36.5 -18z" />
    <glyph glyph-name="uni2089" unicode="&#x2089;" horiz-adv-x="380" 
d="M182 431q51 0 91 -22t62.5 -68.5t22.5 -120.5q0 -72 -25 -122t-70 -76t-103 -26q-30 0 -65 9t-68 30l21 94q28 -16 54.5 -25t55.5 -9q28 0 45.5 11t26 37t8.5 69v16l20 -22q-14 -26 -43.5 -39.5t-60.5 -13.5q-35 0 -65.5 14t-49.5 43.5t-19 74.5q0 71 46.5 108.5
t115.5 37.5zM182 343q-25 0 -39 -13.5t-14 -38.5t13.5 -38.5t37.5 -13.5q25 0 38.5 13.5t13.5 38.5t-13.5 38.5t-36.5 13.5z" />
    <glyph glyph-name="colonmonetary" unicode="&#x20a1;" horiz-adv-x="600" 
d="M354 -9q-95 0 -165.5 44.5t-109.5 126.5t-39 195q0 112 39 193.5t109.5 126t165.5 44.5q59 0 119 -22t100 -60l-51 -112q-48 37 -86.5 53.5t-74.5 16.5q-78 0 -120 -62t-42 -178q0 -117 42 -179.5t120 -62.5q36 0 74.5 16.5t86.5 53.5l51 -112q-40 -38 -100 -60t-119 -22
zM97 -69l-91 33l104 259l72 -80zM241 -124l-91 35l68 169l96 -18zM284 661l66 167h103l-66 -167h-103zM520 580l-82 53l77 195h104z" />
    <glyph glyph-name="franc" unicode="&#x20a3;" horiz-adv-x="600" 
d="M44 0v712h443v-125h-295v-162h134v-125h-134v-300h-148zM309 0v496h132v-141l-10 2q10 59 29.5 90.5t49 43.5t71.5 12h14v-122h-9q-47 0 -76.5 -13t-43 -40t-13.5 -68v-260h-144z" />
    <glyph glyph-name="lira" unicode="&#x20a4;" horiz-adv-x="600" 
d="M39 233v92h391v-92h-391zM39 388v93h391v-93h-391zM268 509v-258q0 -48 -11.5 -79t-40 -51t-79.5 -34l2 38h433v-125h-533v105q42 22 58 49t16 75v291q0 60 29 105.5t80.5 70.5t120.5 25t130.5 -20.5t108.5 -59.5l-51 -112q-47 35 -92 52t-83 17q-43 0 -65.5 -22.5
t-22.5 -66.5z" />
    <glyph glyph-name="uni20A6" unicode="&#x20a6;" horiz-adv-x="600" 
d="M99 0v712h123l180 -497l-29 -12v509h128v-712h-124l-179 468l29 40v-508h-128zM18 234v93h135v-93h-135zM18 390v93h135v-93h-135zM429 234v93h154v-93h-154zM429 390v93h154v-93h-154z" />
    <glyph glyph-name="peseta" unicode="&#x20a7;" horiz-adv-x="1200" 
d="M63 0v728h190q71 0 124 -30.5t82.5 -86t29.5 -130.5q0 -73 -30 -128.5t-83 -87t-123 -31.5h-40v-234h-150zM213 353h35q52 0 75.5 31t23.5 96q0 67 -23.5 97.5t-75.5 30.5h-35v-255zM439 394v113h356v-114zM1004 -8q-129 0 -215 62l41 105q44 -29 89 -43t89 -13
q33 1 52 13t19 32q0 23 -22 34.5t-88 25.5q-85 17 -123.5 52.5t-38.5 95.5q0 47 27.5 84t74 58.5t104.5 21.5q51 0 101.5 -17t88.5 -46l-40 -101q-41 25 -81 38.5t-75 13.5q-26 0 -44 -12.5t-18 -33.5t20 -32t77 -25q65 -15 103 -34.5t54 -48t16 -71.5q0 -72 -58 -115.5
t-153 -43.5zM534 656h152v-461q0 -46 21 -69.5t65 -23.5q11 0 23.5 1.5t24.5 2.5l-7 -110q-31 -4 -59 -4q-117 0 -168.5 51.5t-51.5 151.5v461z" />
    <glyph glyph-name="uni20A9" unicode="&#x20a9;" horiz-adv-x="600" 
d="M145 0l-94 712h109l55 -527h-35l83 527h74l82 -527h-35l55 527h110l-95 -712h-79l-96 550h41l-97 -550h-78zM18 234v93h135v-93h-135zM18 390v93h133v-93h-133zM429 234v93h154v-93h-154zM430 390v93h153v-93h-153z" />
    <glyph glyph-name="dong" unicode="&#x20ab;" horiz-adv-x="600" 
d="M239 -8q-60 0 -105.5 32t-71 91t-25.5 138q0 78 25 135t70.5 88.5t106.5 31.5q52 0 95.5 -29t59.5 -76l-13 -19v328h152v-712h-150v118l11 -21q-16 -47 -59.5 -76t-95.5 -29zM61 -155v87h472v-87h-472zM286 108q44 0 70.5 38.5t26.5 103.5t-26.5 104t-70.5 39
q-46 0 -72 -38t-26 -102q0 -66 26.5 -105.5t71.5 -39.5zM240 548v87h361v-87h-361z" />
    <glyph glyph-name="Euro" unicode="&#x20ac;" horiz-adv-x="600" 
d="M370 -9q-85 0 -147 44t-95 125.5t-33 196.5q0 114 33 195t95 125t147 44q59 0 117.5 -21.5t98.5 -60.5l-50 -112q-49 38 -86 54t-73 16q-66 0 -96.5 -57t-30.5 -183q0 -127 30.5 -184.5t96.5 -57.5q36 0 73 16t86 54l50 -112q-39 -38 -98.5 -60t-117.5 -22zM18 233v92
h392v-92h-392zM18 388v93h392v-93h-392z" />
    <glyph glyph-name="uni20AD" unicode="&#x20ad;" horiz-adv-x="600" 
d="M18 312v88h550v-88h-550zM445 0l-244 357l244 355h168l-275 -398v83l275 -397h-168zM86 0v712h150v-712h-150z" />
    <glyph glyph-name="uni20B1" unicode="&#x20b1;" horiz-adv-x="600" 
d="M99 0v712h186q75 0 126.5 -32.5t78 -87.5t26.5 -122t-27 -122t-78.5 -88t-125.5 -33h-35v-227h-151zM18 345v93h135v-93h-135zM18 501v93h135v-93h-135zM248 346h33q44 0 68 27.5t24 95.5q0 70 -24 96.5t-68 26.5h-33v-246zM429 345v93h154v-93h-154zM429 501v93h154v-93
h-154z" />
    <glyph glyph-name="uni20B2" unicode="&#x20b2;" horiz-adv-x="600" 
d="M347 -9q-96 0 -166.5 44.5t-109.5 126.5t-39 195q0 112 39 193.5t109 126t165 44.5q55 0 116 -21t103 -61l-50 -112q-50 38 -88 54t-73 16q-74 0 -118 -60t-44 -180q0 -121 43 -183.5t113 -62.5q23 0 53 7t59 19l-34 -51v198h-111v109h251v-350q-38 -16 -76 -27.5
t-74 -18t-68 -6.5zM279 -116v134h120v-134h-120zM276 694v134h120v-134h-120z" />
    <glyph glyph-name="uni20B5" unicode="&#x20b5;" horiz-adv-x="600" 
d="M354 -9q-95 0 -165.5 44.5t-109.5 126.5t-39 195q0 112 39 193.5t109.5 126t165.5 44.5q59 0 119 -22t100 -60l-51 -112q-48 37 -86.5 53.5t-74.5 16.5q-78 0 -120 -62t-42 -178q0 -117 42 -179.5t120 -62.5q36 0 74.5 16.5t86.5 53.5l51 -112q-40 -38 -100 -60t-119 -22
zM287 -116v944h120v-944h-120z" />
    <glyph glyph-name="uni20B9" unicode="&#x20b9;" horiz-adv-x="600" 
d="M397 0l-151 227q-16 26 -35 37.5t-50 11.5h-143v121h210q62 0 92 30t30 82q0 53 -30 82t-92 29h-90v73h118q80 0 134 -20.5t81.5 -63.5t27.5 -111q0 -66 -29.5 -114.5t-83.5 -74.5t-127 -26l27 12q52 0 87.5 -18t64.5 -62l147 -215h-188zM18 465v92h565v-92h-565zM18 620
v92h565v-92h-565z" />
    <glyph glyph-name="uni20BA" unicode="&#x20ba;" horiz-adv-x="600" 
d="M129 32v680h157v-586q14 -5 31 -8t47 -3t74.5 13.5t100.5 54.5l50 -112q-53 -44 -118 -62t-134 -18q-104 0 -208 41zM55 234v105l389 220v-107zM55 402v106l389 219v-106z" />
    <glyph glyph-name="uni20BC" unicode="&#x20bc;" horiz-adv-x="600" 
d="M24 0q0 185 12.5 312t35 207.5t56 124t77 59.5t95.5 16t95.5 -16.5t77 -60t56.5 -123.5t35 -207.5t12 -311.5h-152q0 141 -3 240.5t-9 166.5t-16 106.5t-23.5 59.5t-31.5 26t-41 6t-40.5 -6t-31.5 -26t-24 -59.5t-16 -106t-8.5 -167t-2.5 -240.5h-153zM244 299v332l-5 44
v153h122v-153l-5 -44v-332h-112z" />
    <glyph glyph-name="uni20BD" unicode="&#x20bd;" horiz-adv-x="600" 
d="M99 0v712h246q79 0 133.5 -27t82.5 -73t28 -103q0 -66 -28.5 -113.5t-82.5 -72.5t-133 -25h-95v-298h-151zM18 143v92h391v-92h-391zM18 298v93h147v-93h-147zM248 391h60q68 0 103 23.5t35 74.5q0 59 -32 84t-96 25h-70v-207z" />
    <glyph glyph-name="uni2113" unicode="&#x2113;" horiz-adv-x="606" 
d="M327 -17q-56 0 -89.5 23t-49 60.5t-15.5 78.5v39l-51 -48l-51 52l102 96v245q0 56 20.5 98.5t57.5 66t87 23.5q42 0 71.5 -15.5t45 -45t15.5 -70.5q0 -75 -36.5 -136.5t-89.5 -121.5q-8 -9 -17.5 -19t-14.5 -16v-120q0 -39 16.5 -57.5t40.5 -18.5q19 0 37 9t38 27l39 -81
q-33 -35 -72.5 -52t-83.5 -17zM312 402q4 4 7 7.5t5 7.5q27 35 44 76t17 74q0 17 -6.5 30t-25.5 13t-30 -15t-11 -48v-145z" />
    <glyph glyph-name="uni2116" unicode="&#x2116;" horiz-adv-x="1133" 
d="M944 405q-59 0 -97 22t-56.5 58t-18.5 77t18.5 76.5t56.5 57t97 21.5q60 0 98.5 -21.5t57 -57t18.5 -76.5t-18.5 -77t-57 -58t-98.5 -22zM944 502q25 0 39 16t14 44q0 30 -14 44t-39 14q-23 0 -36 -14t-13 -44q0 -28 13 -44t36 -16zM789 211v118h312v-118h-312zM71 0v712
h115l384 -490l-29 -19v509h147v-712h-116l-382 488l27 21v-509h-146z" />
    <glyph glyph-name="trademark" unicode="&#x2122;" horiz-adv-x="953" 
d="M132 287v315h-118v110h373v-110h-117v-315h-138zM446 287v425h107l125 -240h-22l127 240h103v-425h-118v222l16 -2l-75 -144h-85l-77 144l18 2v-222h-119z" />
    <glyph glyph-name="uni2126" unicode="&#x2126;" horiz-adv-x="819" 
d="M410 722q109 0 190.5 -38t126.5 -107.5t45 -161.5q0 -91 -53 -175t-158 -159l31 44h166v-125h-292v121q78 71 114 140t36 149q0 89 -55 139.5t-151 50.5q-97 0 -152 -50.5t-55 -139.5q0 -80 37 -149.5t115 -139.5v-121h-293v125h165l32 -44q-105 75 -158.5 159t-53.5 175
q0 92 45.5 161.5t127 107.5t190.5 38z" />
    <glyph glyph-name="estimated" unicode="&#x212e;" horiz-adv-x="903" 
d="M452 -5q-96 0 -170.5 28.5t-126 77.5t-78 113t-26.5 134q0 71 27 137t79 118.5t126 83t167 30.5q116 0 194 -33.5t123.5 -89.5t65 -123.5t19.5 -136.5h-649q-5 0 -5 -6v-173q0 -7 1.5 -16t5.5 -14q83 -98 244 -98q86 0 148 29.5t114 78.5h72q-40 -47 -85 -78.5
t-104 -46.5t-142 -15zM203 366h497q5 0 5 6v190q0 14 -10 26q-35 41 -79.5 62t-88.5 28.5t-80 7.5q-58 0 -122 -21t-118 -75q-9 -9 -9 -27v-191q0 -6 5 -6z" />
    <glyph glyph-name="partialdiff" unicode="&#x2202;" horiz-adv-x="600" 
d="M278 -17q-76 1 -133.5 33t-89.5 90t-32 137q0 78 30 137t82 92.5t118 33.5q54 0 95 -21.5t64 -64.5l-15 1q0 59 -16 104t-47 75.5t-76 45.5t-103 15h-37v112q22 4 43 5.5t44 1.5q64 0 118 -18.5t97 -54t73 -87.5t45.5 -118.5t15.5 -147.5q0 -123 -31.5 -205.5t-93 -124
t-151.5 -41.5zM282 105q47 0 77 37.5t30 101.5q0 42 -13.5 73.5t-37.5 49t-56 17.5q-31 0 -55.5 -17.5t-37.5 -49t-13 -74.5q1 -42 14 -73t37 -48t55 -17z" />
    <glyph glyph-name="emptyset" unicode="&#x2205;" horiz-adv-x="600" 
d="M22 18l81 103q-46 39 -74 93.5t-28 119.5q0 57 22.5 108.5t63 92t95.5 63.5t119 23q42 0 81.5 -10.5t73.5 -30.5l80 103l54 -41l-81 -103q41 -38 65.5 -90.5t24.5 -114.5q0 -58 -23 -109.5t-64.5 -90.5t-95 -61.5t-115.5 -22.5q-39 0 -75 9.5t-68 25.5l-81 -103zM152 184
l255 330q-22 12 -49.5 19.5t-56.5 7.5q-60 0 -109 -27t-77.5 -74t-28.5 -106q0 -44 17.5 -83t48.5 -67zM301 127q57 0 106 26.5t78.5 73t29.5 107.5q0 41 -14.5 77t-40.5 65l-254 -328q21 -10 45 -15.5t50 -5.5z" />
    <glyph glyph-name="uni2206" unicode="&#x2206;" horiz-adv-x="819" 
d="M410 722q109 0 190.5 -38t126.5 -107.5t45 -161.5q0 -91 -53 -175t-158 -159l31 44h166v-125h-292v121q78 71 114 140t36 149q0 89 -55 139.5t-151 50.5q-97 0 -152 -50.5t-55 -139.5q0 -80 37 -149.5t115 -139.5v-121h-293v125h165l32 -44q-105 75 -158.5 159t-53.5 175
q0 92 45.5 161.5t127 107.5t190.5 38z" />
    <glyph glyph-name="product" unicode="&#x220f;" horiz-adv-x="600" 
d="M546 712v-894h-140v771h-212v-771h-140v894h492z" />
    </font>
</defs>
</svg>
