<?xml version="1.0" standalone="no"?>
<!DOCTYPE svg PUBLIC "-//W3C//DTD SVG 1.1//EN" "http://www.w3.org/Graphics/SVG/1.1/DTD/svg11.dtd" >
<svg xmlns="http://www.w3.org/2000/svg" xmlns:xlink="http://www.w3.org/1999/xlink" version="1.1">
<metadata>
Created by FontForge 20170731 at Tue Jun 16 21:59:27 2020
 By Aleksey,,,
Copyright 2011 The Mulish Project Authors (github.com/googlefonts/mulish)
</metadata>
<defs>
<font id="Mulish-Bold" horiz-adv-x="0" >
  <font-face 
    font-family="Mulish"
    font-weight="700"
    font-stretch="normal"
    units-per-em="1000"
    panose-1="0 0 0 0 0 0 0 0 0 0"
    ascent="800"
    descent="-200"
    x-height="504"
    cap-height="712"
    bbox="-207 -273 1318 1090"
    underline-thickness="50"
    underline-position="-175"
    unicode-range="U+000D-FB02"
  />
<missing-glyph horiz-adv-x="500" 
d="M50 -216h400v952h-400v-952zM100 -166v852h300v-852h-300z" />
    <glyph glyph-name="fi" unicode="fi" horiz-adv-x="626" 
d="M426 739h141v-126h-141v126zM559 505v-505h-125v411h-429v94h554zM102 0v556q0 67 21 107t69 58t129 18h38v-92h-25q-45 0 -68 -7.5t-31 -30t-8 -67.5v-542h-125z" />
    <glyph glyph-name="fl" unicode="fl" horiz-adv-x="628" 
d="M5 411v94h333v-94h-333zM356 629q-28 8 -50 8t-40.5 -8.5t-29 -28t-10.5 -52.5v-548h-125v554q0 90 45.5 138t130.5 48q21 0 41 -2t38 -9v-100zM434 0v736h125v-736h-125z" />
    <glyph glyph-name=".notdef" horiz-adv-x="500" 
d="M50 -216h400v952h-400v-952zM100 -166v852h300v-852h-300z" />
    <glyph glyph-name=".null" 
 />
    <glyph glyph-name="nonmarkingreturn" horiz-adv-x="333" 
 />
    <glyph glyph-name="NULL" 
 />
    <glyph glyph-name="NULL" 
 />
    <glyph glyph-name="CR" unicode="&#xd;" horiz-adv-x="274" 
 />
    <glyph glyph-name="space" unicode=" " horiz-adv-x="274" 
 />
    <glyph glyph-name="exclam" unicode="!" horiz-adv-x="251" 
d="M87 213l-39 499h155l-40 -499h-76zM55 140h141v-140h-141v140z" />
    <glyph glyph-name="quotedbl" unicode="&#x22;" horiz-adv-x="455" 
d="M81 419l-32 293h145l-29 -293h-84zM292 419l-32 293h145l-29 -293h-84z" />
    <glyph glyph-name="numbersign" unicode="#" horiz-adv-x="606" 
d="M297 0l140 712h87l-140 -712h-87zM44 173v81h496v-81h-496zM82 0l140 712h87l-140 -712h-87zM66 466v81h496v-81h-496z" />
    <glyph glyph-name="dollar" unicode="$" horiz-adv-x="600" 
d="M301 -8q-80 0 -148.5 21.5t-118.5 62.5l44 93q51 -39 104 -57t115 -18q69 0 106 26.5t37 76.5q0 31 -21.5 49.5t-57 30t-77.5 22t-84 23.5t-77.5 35.5t-56.5 58t-21 91.5q0 62 34.5 110t94.5 75.5t136 27.5q47 0 92.5 -10t85 -28.5t68.5 -44.5l-44 -94q-93 75 -201 75
q-63 0 -100 -27t-37 -77q0 -34 21 -54.5t56.5 -33t77.5 -22.5t84 -23t77.5 -34t56.5 -56t21 -89q0 -63 -33.5 -110t-94 -73.5t-139.5 -26.5zM259 -116v129l8 59v581l-8 50v125h102v-125l-7 -50v-581l7 -59v-129h-102z" />
    <glyph glyph-name="percent" unicode="%" horiz-adv-x="879" 
d="M190 281q-77 0 -122 54.5t-45 163.5t45 163t122 54t122 -54t45 -163t-44.5 -163.5t-122.5 -54.5zM190 362q31 0 46 32t15 105q0 72 -15.5 104t-45.5 32q-31 0 -46 -32t-15 -104q0 -73 15 -105t46 -32zM173 0l413 712h120l-412 -712h-121zM689 -4q-77 0 -122 54.5
t-45 163.5t45 163t122 54t122 -54t45 -163t-44.5 -163.5t-122.5 -54.5zM689 77q31 0 46 32t15 105q0 72 -15.5 104t-45.5 32q-31 0 -46 -32t-15 -104q0 -73 15 -105t46 -32z" />
    <glyph glyph-name="ampersand" unicode="&#x26;" horiz-adv-x="687" 
d="M284 -7q-73 0 -128 24t-85.5 67.5t-30.5 101.5q0 73 46 128t148 104q57 29 90 52t46.5 44t13.5 46q0 33 -20 53t-53 20q-37 0 -59.5 -22t-22.5 -58q0 -18 6.5 -34.5t23 -37t47.5 -53.5l244 -254q33 -33 72 -57.5t87 -40.5l-62 -85q-53 18 -94 44t-74 60l-279 290
q-30 32 -49 59.5t-27.5 54t-8.5 53.5q0 50 24.5 87.5t68.5 58.5t101 21q81 0 129.5 -42t48.5 -112q0 -43 -20 -79t-63 -69.5t-113 -67.5q-45 -23 -74 -47t-42 -50.5t-13 -58.5q0 -48 34 -76t92 -28q68 0 123 43.5t89 120t38 176.5h105q-3 -96 -32 -176t-77 -138t-111.5 -90
t-138.5 -32z" />
    <glyph glyph-name="quotesingle" unicode="'" horiz-adv-x="244" 
d="M81 419l-32 293h145l-29 -293h-84z" />
    <glyph glyph-name="parenleft" unicode="(" horiz-adv-x="355" 
d="M226 -182q-45 81 -72.5 155t-39.5 145.5t-12 147.5t12.5 148.5t39.5 146t73 151.5h101q-39 -94 -60 -169.5t-29 -142.5t-8 -134t8 -134t29 -143.5t58 -170.5h-100z" />
    <glyph glyph-name="parenright" unicode=")" horiz-adv-x="355" 
d="M128 -182h-99q37 94 57.5 170.5t29 143.5t8.5 134t-8 134t-29 142.5t-59 169.5h101q67 -117 95.5 -225t28.5 -221q0 -76 -12 -147.5t-39.5 -145.5t-73.5 -155z" />
    <glyph glyph-name="asterisk" unicode="*" horiz-adv-x="457" 
d="M148 346l-71 52l92 113l-142 39l28 84l136 -52l-7 146h88l-7 -145l137 51l27 -84l-141 -39l92 -113l-72 -52l-80 122z" />
    <glyph glyph-name="plus" unicode="+" horiz-adv-x="600" 
d="M546 333v-88h-492v88h492zM256 535h88v-493h-88v493z" />
    <glyph glyph-name="comma" unicode="," horiz-adv-x="251" 
d="M116 -133l-51 40q32 32 44.5 61t12.5 60l32 -28h-99v140h141v-93q0 -50 -18 -93.5t-62 -86.5z" />
    <glyph glyph-name="hyphen" unicode="-" horiz-adv-x="438" 
d="M69 220v99h301v-99h-301z" />
    <glyph glyph-name="period" unicode="." horiz-adv-x="251" 
d="M55 140h141v-140h-141v140z" />
    <glyph glyph-name="slash" unicode="/" horiz-adv-x="315" 
d="M80 -59h-105l259 812h107z" />
    <glyph glyph-name="zero" unicode="0" horiz-adv-x="600" 
d="M300 -8q-126 0 -193 93t-67 271t66.5 271t193.5 93t193.5 -93t66.5 -270q0 -179 -67 -272t-193 -93zM300 92q69 0 101 63.5t32 201.5q0 137 -32 199t-101 62t-101 -62.5t-32 -198.5q0 -138 32 -201.5t101 -63.5z" />
    <glyph glyph-name="one" unicode="1" horiz-adv-x="600" 
d="M267 59v558l65 -14l-209 -126v115l198 120h75v-653h-129zM112 0v104h440v-104h-440z" />
    <glyph glyph-name="two" unicode="2" horiz-adv-x="600" 
d="M72 0v95l241 261q42 47 62 86t20 77q0 49 -28 74t-81 25q-48 0 -96.5 -18.5t-96.5 -55.5l-44 94q43 38 109 60t134 22q70 0 122 -23t80 -66.5t28 -103.5q0 -62 -26 -115.5t-88 -120.5l-217 -230l-15 43h373v-104h-477z" />
    <glyph glyph-name="three" unicode="3" horiz-adv-x="600" 
d="M287 -7q-72 0 -138.5 21.5t-109.5 60.5l44 94q47 -37 96.5 -55.5t102.5 -18.5q69 0 102 26.5t33 82.5q0 54 -34 80t-105 26h-94v102h77q69 0 103.5 26t34.5 78q0 50 -30 76t-83 26q-49 0 -98 -18.5t-95 -55.5l-44 94q43 38 109 60t135 22q70 0 121.5 -23t79.5 -65.5
t28 -99.5q0 -64 -33 -108.5t-93 -62.5l-1 10q70 -16 107.5 -61.5t37.5 -116.5q0 -93 -68.5 -146.5t-184.5 -53.5z" />
    <glyph glyph-name="four" unicode="4" horiz-adv-x="600" 
d="M348 0v553h30l-246 -353l1 41h443v-101h-537v95l333 477h103v-712h-127z" />
    <glyph glyph-name="five" unicode="5" horiz-adv-x="600" 
d="M300 -7q-66 0 -131.5 22t-107.5 60l43 94q48 -36 97.5 -55t100.5 -19q66 0 102 33.5t36 95.5q0 40 -16.5 69t-46.5 45t-71 16t-78 -15.5t-67 -45.5h-77v419h446v-101h-320v-235l-39 6q30 36 72 55t95 19q67 0 117.5 -29t79 -80t28.5 -119q0 -70 -32.5 -123.5t-91 -82.5
t-139.5 -29z" />
    <glyph glyph-name="six" unicode="6" horiz-adv-x="600" 
d="M323 -8q-134 0 -207.5 90.5t-73.5 260.5q0 119 34.5 203.5t100 129t155.5 44.5q64 0 124.5 -21t105.5 -61l-44 -94q-49 39 -94.5 56.5t-86.5 17.5q-81 0 -124.5 -70.5t-43.5 -202.5v-54l-14 25q9 43 36 74.5t66.5 49t86.5 17.5q64 0 113 -29.5t77 -81t28 -118.5
q0 -69 -31 -122.5t-84.5 -83.5t-123.5 -30zM317 94q55 0 88.5 35.5t33.5 94.5t-33.5 94.5t-89.5 35.5q-37 0 -65.5 -16.5t-44.5 -46t-16 -67.5q0 -39 16 -68t44.5 -45.5t66.5 -16.5z" />
    <glyph glyph-name="seven" unicode="7" horiz-adv-x="600" 
d="M225 0h-138l344 648l3 -40h-382v104h496v-96z" />
    <glyph glyph-name="eight" unicode="8" horiz-adv-x="600" 
d="M300 -7q-79 0 -139 23.5t-93.5 68.5t-33.5 107q0 75 49 122.5t134 58.5l-4 -15q-75 15 -119 60.5t-44 110.5q0 59 32.5 102t89 66t128.5 23t128.5 -23t89 -66t32.5 -102q0 -66 -44 -112t-118 -59l-4 15q85 -12 133.5 -60t48.5 -121q0 -62 -33.5 -107t-93.5 -68.5
t-139 -23.5zM300 93q67 0 106 27.5t39 80.5q0 51 -40.5 80.5t-104.5 37.5q-64 -8 -104.5 -37.5t-40.5 -80.5q0 -53 39 -80.5t106 -27.5zM300 401q55 9 91 37.5t36 77.5q0 51 -34.5 77.5t-92.5 26.5t-92.5 -26.5t-34.5 -77.5q0 -49 36 -77.5t91 -37.5z" />
    <glyph glyph-name="nine" unicode="9" horiz-adv-x="600" 
d="M277 720q135 0 208 -90.5t73 -260.5q0 -119 -34.5 -203.5t-99.5 -129t-156 -44.5q-64 0 -124.5 21t-105.5 61l44 94q50 -39 95 -56.5t87 -17.5q81 0 124 70.5t43 202.5v54l14 -25q-9 -43 -36 -74.5t-66.5 -49t-86.5 -17.5q-63 0 -112.5 29.5t-77.5 81t-28 118.5
q0 69 31 122.5t85 83.5t123 30zM284 618q-56 0 -89.5 -35.5t-33.5 -94.5t33.5 -94.5t89.5 -35.5q37 0 66 16.5t44.5 46t15.5 67.5q0 39 -15.5 68t-44.5 45.5t-66 16.5z" />
    <glyph glyph-name="colon" unicode=":" horiz-adv-x="251" 
d="M55 140h141v-140h-141v140zM55 494h141v-139h-141v139z" />
    <glyph glyph-name="semicolon" unicode=";" horiz-adv-x="251" 
d="M55 494h141v-139h-141v139zM116 -133l-51 40q32 32 44.5 61t12.5 60l32 -28h-99v140h141v-93q0 -50 -18 -93.5t-62 -86.5z" />
    <glyph glyph-name="less" unicode="&#x3c;" horiz-adv-x="600" 
d="M54 241v95l492 209v-96l-455 -191v61l455 -190v-97z" />
    <glyph glyph-name="equal" unicode="=" horiz-adv-x="600" 
d="M546 434v-88h-492v88h492zM546 232v-88h-492v88h492z" />
    <glyph glyph-name="greater" unicode="&#x3e;" horiz-adv-x="600" 
d="M546 241l-492 -209v97l455 190v-61l-455 191v96l492 -209v-95z" />
    <glyph glyph-name="question" unicode="?" horiz-adv-x="463" 
d="M88 681q35 21 74 30t75 9q63 0 110.5 -20.5t74 -58t26.5 -86.5q0 -44 -17 -78t-43.5 -62t-53.5 -55t-47 -56t-24 -66l-5 -28h-73v41q0 46 13.5 80t33.5 60t40.5 49.5t34 48t13.5 55.5q0 35 -24 54t-68 19q-32 0 -68 -10t-72 -32v106zM152 0v140h141v-140h-141z" />
    <glyph glyph-name="at" unicode="@" horiz-adv-x="943" 
d="M482 -158q-135 0 -233.5 54.5t-151.5 151t-53 223.5q0 105 33 187.5t92.5 141t139.5 88.5t174 30q102 0 179.5 -30t130.5 -81.5t79.5 -119.5t26.5 -142q0 -72 -16.5 -125t-45.5 -87.5t-66 -51t-79 -16.5q-55 0 -86.5 23.5t-37.5 62.5h-2q-24 -37 -59.5 -61.5t-90.5 -24.5
q-72 0 -113 48.5t-41 130.5q0 53 15.5 100.5t43.5 83.5t67 56t86 20q44 0 77 -19t45 -52h2l11 61h93l-45 -251q-9 -54 2.5 -79t49.5 -25q15 0 32.5 10.5t33.5 34t26 63t10 98.5q0 60 -20.5 113t-61 94t-102 63.5t-144.5 22.5q-74 0 -137 -24.5t-110 -71.5t-73 -115.5
t-26 -155.5q0 -106 41.5 -184t118.5 -121.5t185 -43.5q80 0 136 21t84 57h121q-39 -70 -126.5 -114t-214.5 -44zM437 139q46 0 77.5 27.5t47.5 71t16 89.5q0 51 -24 76.5t-65 25.5q-43 0 -73 -28t-45.5 -70t-15.5 -86q0 -50 23.5 -78t58.5 -28z" />
    <glyph glyph-name="A" unicode="A" horiz-adv-x="749" 
d="M130 0h-130l322 712h105l322 -712h-128l-262 612h35zM142 167l49 100h363l47 -100h-459z" />
    <glyph glyph-name="B" unicode="B" horiz-adv-x="690" 
d="M77 0v712h313q109 0 172.5 -49t63.5 -137q0 -60 -33 -103t-93 -60v8q69 -15 106.5 -61t37.5 -116q0 -91 -64.5 -142.5t-180.5 -51.5h-322zM203 101h183q71 0 103.5 24.5t32.5 79.5q0 54 -33 80t-103 26h-183v-210zM203 412h165q69 0 102 25t33 75q0 51 -33 75t-102 24
h-165v-199z" />
    <glyph glyph-name="C" unicode="C" horiz-adv-x="684" 
d="M400 -8q-106 0 -184 44.5t-119.5 126.5t-41.5 194q0 111 41.5 192.5t119.5 126t184 44.5q72 0 135.5 -21.5t105.5 -62.5l-42 -94q-49 39 -96 56.5t-101 17.5q-103 0 -159.5 -66.5t-56.5 -192.5t56.5 -193.5t159.5 -67.5q54 0 101 17.5t96 56.5l42 -94
q-42 -41 -105.5 -62.5t-135.5 -21.5z" />
    <glyph glyph-name="D" unicode="D" horiz-adv-x="761" 
d="M77 0v712h262q117 0 199 -42t125.5 -121.5t43.5 -191.5q0 -113 -43.5 -193t-126 -122t-198.5 -42h-262zM206 105h125q123 0 184.5 63t61.5 189q0 250 -246 250h-125v-502z" />
    <glyph glyph-name="E" unicode="E" horiz-adv-x="595" 
d="M77 0v712h476v-101h-350v-198h330v-102h-330v-210h350v-101h-476z" />
    <glyph glyph-name="F" unicode="F" horiz-adv-x="572" 
d="M77 0v712h466v-103h-339v-196h319v-103h-319v-310h-127z" />
    <glyph glyph-name="G" unicode="G" horiz-adv-x="740" 
d="M412 -8q-111 0 -191.5 43.5t-123 125t-42.5 196.5q0 113 42.5 194.5t121.5 125t187 43.5q75 0 140 -21t110 -62l-44 -94q-51 39 -99 56.5t-105 17.5q-109 0 -165.5 -66t-56.5 -194q0 -131 58 -197.5t173 -66.5q44 0 86.5 7.5t80.5 21.5l-30 -48v218h-153v93h270v-342
q-33 -17 -75 -28t-89 -17t-95 -6z" />
    <glyph glyph-name="H" unicode="H" horiz-adv-x="774" 
d="M570 0v712h126v-712h-126zM77 0v712h127v-712h-127zM123 310v103h521v-103h-521z" />
    <glyph glyph-name="I" unicode="I" horiz-adv-x="284" 
d="M77 0v712h129v-712h-129z" />
    <glyph glyph-name="J" unicode="J" horiz-adv-x="362" 
d="M-2 -178v105q63 -9 97 -4.5t47 29.5t13 77v683h129v-682q0 -88 -27 -140t-89.5 -68.5t-169.5 0.5z" />
    <glyph glyph-name="K" unicode="K" horiz-adv-x="666" 
d="M537 0l-361 363l348 349h156l-386 -382l9 71l392 -401h-158zM77 0v712h129v-712h-129z" />
    <glyph glyph-name="L" unicode="L" horiz-adv-x="560" 
d="M77 0v712h129v-606h332v-106h-461z" />
    <glyph glyph-name="M" unicode="M" horiz-adv-x="850" 
d="M79 0v712h103l269 -613h-49l267 613h103v-712h-115l-1 527l34 -8l-222 -519h-85l-227 519l36 8l1 -527h-114z" />
    <glyph glyph-name="N" unicode="N" horiz-adv-x="755" 
d="M77 0v712h96l410 -533l-27 -14v547h121v-712h-97l-408 531l26 16v-547h-121z" />
    <glyph glyph-name="O" unicode="O" horiz-adv-x="787" 
d="M393 -8q-104 0 -180 44t-117 126t-41 194q0 113 41 194.5t117 125.5t180 44q105 0 181 -44t117 -125.5t41 -193.5q0 -113 -41.5 -195t-117 -126t-180.5 -44zM393 94q98 0 154 67.5t56 195.5t-56 194.5t-154 66.5q-97 0 -153 -66.5t-56 -194.5t56 -195.5t153 -67.5z" />
    <glyph glyph-name="P" unicode="P" horiz-adv-x="666" 
d="M77 0v712h309q116 0 179.5 -55.5t63.5 -151.5q0 -95 -64.5 -151t-178.5 -56h-180v-298h-129zM206 397h165q68 0 101.5 28t33.5 79q0 52 -33 79.5t-102 27.5h-165v-214z" />
    <glyph glyph-name="Q" unicode="Q" horiz-adv-x="787" 
d="M587 -191q-50 35 -93 84.5t-74 102.5l115 45q25 -51 62.5 -90.5t76.5 -72.5zM393 -8q-104 0 -180 44t-117 126t-41 194q0 113 41 194.5t117 125.5t180 44q105 0 181 -44t117 -125.5t41 -193.5q0 -113 -41.5 -195t-117 -126t-180.5 -44zM393 94q98 0 154 67.5t56 195.5
t-56 194.5t-154 66.5q-97 0 -153 -66.5t-56 -194.5t56 -195.5t153 -67.5z" />
    <glyph glyph-name="R" unicode="R" horiz-adv-x="702" 
d="M77 0v712h305q121 0 184 -53t63 -152q0 -94 -65 -149.5t-181 -55.5l80 16q37 0 66 -22t46 -68l88 -228h-136l-90 237q-14 35 -39.5 47t-63.5 12h-130v-296h-127zM203 396h161q74 0 108 27t34 81q0 55 -34 81t-108 26h-161v-215z" />
    <glyph glyph-name="S" unicode="S" horiz-adv-x="645" 
d="M318 -8q-55 0 -105 9.5t-93.5 28.5t-76.5 46l43 94q54 -40 110 -58t123 -18q74 0 114.5 26t40.5 73q0 28 -18 46.5t-54 31.5t-89 25q-63 12 -111 29.5t-80 41.5t-48.5 57.5t-16.5 79.5q0 63 34 112t95.5 76.5t144.5 27.5q50 0 97.5 -10t87.5 -28.5t69 -45.5l-44 -94
q-48 39 -100 57.5t-109 18.5q-69 0 -109 -28t-40 -78q0 -29 16.5 -48t51 -32t88.5 -26q62 -13 110.5 -30t82.5 -40.5t51.5 -56t17.5 -77.5q0 -64 -34 -111.5t-97.5 -73t-151.5 -25.5z" />
    <glyph glyph-name="T" unicode="T" horiz-adv-x="618" 
d="M244 0v606h-232v106h594v-106h-232v-606h-130z" />
    <glyph glyph-name="U" unicode="U" horiz-adv-x="740" 
d="M371 -8q-147 0 -222.5 75t-75.5 221v424h126v-431q0 -92 43.5 -139.5t128.5 -47.5q82 0 125.5 48t43.5 139v431h128v-424q0 -145 -76.5 -220.5t-220.5 -75.5z" />
    <glyph glyph-name="V" unicode="V" horiz-adv-x="721" 
d="M308 0l-317 712h135l256 -598h-41l259 598h130l-316 -712h-106z" />
    <glyph glyph-name="W" unicode="W" horiz-adv-x="1121" 
d="M276 0l-252 712h131l195 -585h-36l204 585l92 -1l198 -584h-34l199 585h123l-251 -712h-105l-191 546h24l-193 -546h-104z" />
    <glyph glyph-name="X" unicode="X" horiz-adv-x="670" 
d="M141 0h-151l271 363l74 94l185 255h151l-263 -350l-73 -95zM529 0l-194 267l-74 96l-261 349h151l184 -255l73 -95l271 -362h-150z" />
    <glyph glyph-name="Y" unicode="Y" horiz-adv-x="629" 
d="M250 0v320l27 -78l-316 470h147l225 -350h-37l225 350h147l-315 -470l26 78v-320h-129z" />
    <glyph glyph-name="Z" unicode="Z" horiz-adv-x="608" 
d="M49 0v94l397 558l-1 -43h-396v103h512v-93l-399 -559l2 43h408v-103h-523z" />
    <glyph glyph-name="bracketleft" unicode="[" horiz-adv-x="354" 
d="M107 -182v894h235v-95h-112v-704h112v-95h-235z" />
    <glyph glyph-name="backslash" unicode="\" horiz-adv-x="314" 
d="M233 -59l-258 812h105l260 -812h-107z" />
    <glyph glyph-name="bracketright" unicode="]" horiz-adv-x="354" 
d="M247 -182h-235v95h112v704h-112v95h235v-894z" />
    <glyph glyph-name="asciicircum" unicode="^" horiz-adv-x="600" 
d="M348 636l209 -493h-97l-191 455h62l-191 -455h-97l209 493h96z" />
    <glyph glyph-name="underscore" unicode="_" horiz-adv-x="505" 
d="M12 -75v75h481v-75h-481z" />
    <glyph glyph-name="grave" unicode="`" horiz-adv-x="300" 
d="M112 559l-148 206h128l99 -206h-79z" />
    <glyph glyph-name="a" unicode="a" horiz-adv-x="619" 
d="M264 -7q-66 0 -117 31.5t-78.5 90t-27.5 137.5q0 80 28 139.5t78.5 93t116.5 33.5q64 0 111.5 -31.5t64.5 -87.5l-12 -7v113h123v-505h-123v114l12 -4q-17 -56 -64.5 -86.5t-111.5 -30.5zM298 89q62 0 96 43t34 122q0 81 -34 123.5t-96 42.5q-63 0 -98 -44t-35 -124
q0 -78 35 -120.5t98 -42.5z" />
    <glyph glyph-name="b" unicode="b" horiz-adv-x="620" 
d="M67 0v736h125v-351l-11 15q16 54 63 86t111 32q67 0 117 -32t79 -91t29 -138t-29 -139t-79.5 -92.5t-116.5 -32.5q-64 0 -111 30.5t-63 86.5l11 18v-128h-125zM323 89q62 0 96 44t34 124q0 78 -34 120.5t-96 42.5q-64 0 -97.5 -43t-33.5 -122q0 -80 33.5 -123t97.5 -43z
" />
    <glyph glyph-name="c" unicode="c" horiz-adv-x="504" 
d="M296 -7q-79 0 -136.5 31.5t-88 90t-30.5 137.5q0 80 32 140t91 93t138 33q53 0 103.5 -17t82.5 -47l-36 -88q-32 26 -68 39.5t-72 13.5q-66 0 -104.5 -42t-38.5 -123q0 -80 38 -122t106 -42q35 0 71 13.5t68 40.5l36 -88q-33 -30 -84.5 -46.5t-107.5 -16.5z" />
    <glyph glyph-name="d" unicode="d" horiz-adv-x="619" 
d="M551 0h-123v128l12 -18q-17 -56 -64.5 -86.5t-111.5 -30.5q-66 0 -116.5 32.5t-78.5 92.5t-28 139t27.5 138t78.5 91t117 32q64 0 111.5 -32t64.5 -86l-14 -15v351h125v-736zM298 89q62 0 96 43t34 123q0 79 -34 122t-96 43q-63 0 -98 -42.5t-35 -120.5q0 -80 35 -124
t98 -44z" />
    <glyph glyph-name="e" unicode="e" horiz-adv-x="548" 
d="M501 56q-36 -30 -88.5 -46.5t-106.5 -16.5q-82 0 -141.5 31t-91.5 90t-32 140q0 78 31 137.5t86 93t127 33.5q70 0 120 -30.5t77.5 -87.5t27.5 -135v-19h-359l1 67h284l-34 -34q1 73 -28.5 111t-85.5 38q-60 0 -93 -42.5t-33 -121.5q0 -90 37 -132.5t112 -42.5
q41 0 80.5 13.5t73.5 39.5z" />
    <glyph glyph-name="f" unicode="f" horiz-adv-x="367" 
d="M5 411v94h333v-94h-333zM356 629q-28 8 -50 8t-40.5 -8.5t-29 -28t-10.5 -52.5v-548h-125v554q0 90 45.5 138t130.5 48q21 0 41 -2t38 -9v-100z" />
    <glyph glyph-name="g" unicode="g" horiz-adv-x="623" 
d="M299 -223q-117 0 -205 48l20 95q46 -24 90.5 -35.5t92.5 -11.5q67 0 101 33t34 100v125h12q-12 -32 -37.5 -58.5t-61.5 -42t-79 -15.5q-66 0 -117 31t-79.5 87.5t-28.5 132.5t28.5 132.5t79.5 88t117 31.5q65 0 113 -32t65 -86l-12 -2v107h124v-489q0 -118 -65 -178.5
t-192 -60.5zM300 112q62 0 97 41t35 113t-35 113t-97 41q-63 0 -99 -41t-36 -113t36 -113t99 -41z" />
    <glyph glyph-name="h" unicode="h" horiz-adv-x="602" 
d="M67 0v736h125v-333l-15 -1q24 57 71.5 86.5t109.5 29.5q180 0 180 -208v-310h-125v305q0 59 -23 86.5t-71 27.5q-58 0 -92.5 -36.5t-34.5 -96.5v-286h-125z" />
    <glyph glyph-name="i" unicode="i" horiz-adv-x="260" 
d="M67 0v505h125v-505h-125zM61 734h139v-123h-139v123z" />
    <glyph glyph-name="j" unicode="j" horiz-adv-x="260" 
d="M-61 -111q15 -4 26 -6t23 -2q22 0 40 8.5t28.5 27.5t10.5 53v535h125v-541q0 -90 -45.5 -138t-129.5 -48q-20 0 -40 2.5t-38 8.5v100zM60 734h139v-123h-139v123z" />
    <glyph glyph-name="k" unicode="k" horiz-adv-x="552" 
d="M413 0l-243 257l230 247h152l-261 -276l6 63l272 -291h-156zM67 0v736h125v-736h-125z" />
    <glyph glyph-name="l" unicode="l" horiz-adv-x="260" 
d="M67 0v736h125v-736h-125z" />
    <glyph glyph-name="m" unicode="m" horiz-adv-x="899" 
d="M67 0v362q0 35 -1.5 71.5t-6.5 71.5h118l11 -100l-11 -1q20 54 64 84t104 30q71 0 111.5 -35.5t52.5 -108.5l-24 22q20 55 68 88.5t112 33.5q85 0 127 -51.5t42 -156.5v-310h-125v306q0 58 -19.5 85.5t-64.5 27.5q-52 0 -81.5 -36.5t-29.5 -100.5v-282h-125v306
q0 58 -20.5 85.5t-64.5 27.5q-53 0 -82.5 -36.5t-29.5 -100.5v-282h-125z" />
    <glyph glyph-name="n" unicode="n" horiz-adv-x="602" 
d="M67 0v362q0 36 -1.5 72t-6.5 71h118l11 -100l-11 -3q24 57 71.5 86.5t109.5 29.5q180 0 180 -208v-310h-125v305q0 59 -23 86.5t-71 27.5q-58 0 -92.5 -36.5t-34.5 -96.5v-286h-125z" />
    <glyph glyph-name="o" unicode="o" horiz-adv-x="592" 
d="M297 -7q-79 0 -136.5 32t-88.5 90.5t-31 139.5q0 80 31 139.5t88.5 91.5t136.5 32q77 0 134.5 -32t89 -91.5t31.5 -139.5q0 -81 -31.5 -139.5t-89 -90.5t-134.5 -32zM297 89q62 0 95.5 41.5t33.5 124.5q0 82 -33.5 123.5t-95.5 41.5q-63 0 -97.5 -41.5t-34.5 -123.5
q0 -83 34 -124.5t98 -41.5z" />
    <glyph glyph-name="p" unicode="p" horiz-adv-x="620" 
d="M67 -216v578q0 35 -1.5 71.5t-6.5 71.5h118l11 -100l-7 -6q16 56 63 87.5t111 31.5q66 0 116.5 -33.5t79.5 -93t29 -139.5q0 -79 -29 -137.5t-79 -90t-117 -31.5q-64 0 -111 30.5t-63 86.5l11 16v-342h-125zM323 89q62 0 96 42.5t34 120.5q0 80 -34 124t-96 44
q-64 0 -97.5 -42.5t-33.5 -123.5q0 -79 33.5 -122t97.5 -43z" />
    <glyph glyph-name="q" unicode="q" horiz-adv-x="619" 
d="M551 -216h-125v342l14 -16q-17 -56 -64.5 -86.5t-111.5 -30.5q-66 0 -117 31.5t-78.5 90t-27.5 137.5q0 80 28 139.5t78.5 93t116.5 33.5q64 0 111.5 -31.5t64.5 -87.5l-9 6l12 100h117q-5 -35 -7 -71.5t-2 -71.5v-578zM298 89q62 0 96 43t34 122q0 81 -34 123.5
t-96 42.5q-63 0 -98 -44t-35 -124q0 -78 35 -120.5t98 -42.5z" />
    <glyph glyph-name="r" unicode="r" horiz-adv-x="392" 
d="M67 0v362q0 35 -1.5 71.5t-6.5 71.5h118l14 -130l-14 7q13 67 59 101t104 34q15 0 28 -2t23 -6l-2 -114q-31 13 -66 13q-45 0 -73.5 -18t-43 -48.5t-14.5 -68.5v-273h-125z" />
    <glyph glyph-name="s" unicode="s" horiz-adv-x="501" 
d="M253 -7q-138 0 -218 63l35 88q40 -30 87 -45t98 -15q46 0 70 15t24 42q0 23 -17 36.5t-58 23.5l-84 19q-69 15 -103.5 50.5t-34.5 90.5q0 46 26 81.5t73 55.5t109 20q54 0 104 -16.5t87 -47.5l-36 -86q-38 29 -77.5 43t-78.5 14q-43 0 -67 -16t-24 -44q0 -22 14.5 -35
t50.5 -21l85 -21q75 -16 109.5 -51.5t34.5 -93.5q0 -69 -56 -109.5t-153 -40.5z" />
    <glyph glyph-name="t" unicode="t" horiz-adv-x="379" 
d="M5 411v94h356v-94h-356zM361 104v-99q-20 -7 -39.5 -9.5t-41.5 -2.5q-85 0 -131.5 48t-46.5 138v449l125 42v-485q0 -34 11 -53.5t29.5 -27.5t41.5 -8q13 0 25 2t27 6z" />
    <glyph glyph-name="u" unicode="u" horiz-adv-x="595" 
d="M250 -7q-93 0 -139.5 51.5t-46.5 155.5v305h125v-306q0 -55 23 -81t69 -26q55 0 88 36t33 96v281h126v-505h-122v104l13 1q-22 -55 -66 -83.5t-103 -28.5z" />
    <glyph glyph-name="v" unicode="v" horiz-adv-x="543" 
d="M216 0l-218 504h131l159 -395h-28l162 395h124l-221 -504h-109z" />
    <glyph glyph-name="w" unicode="w" horiz-adv-x="883" 
d="M208 0l-198 505h129l142 -391h-25l143 391h91l142 -391h-23l142 391h121l-198 -505h-109l-154 407h57l-151 -407h-109z" />
    <glyph glyph-name="x" unicode="x" horiz-adv-x="549" 
d="M411 0l-137 171l-71 89l-200 245h148l123 -157l73 -88l211 -260h-147zM139 0h-149l213 260l71 88l123 157h149l-199 -245l-73 -89z" />
    <glyph glyph-name="y" unicode="y" horiz-adv-x="543" 
d="M56 -227l-28 96q47 10 78 23.5t51.5 34.5t34.5 54l36 82l32 46l162 396h124l-234 -539q-29 -66 -67 -105.5t-85.5 -59.5t-103.5 -28zM231 -33l-233 538h131l159 -396z" />
    <glyph glyph-name="z" unicode="z" horiz-adv-x="525" 
d="M49 0v87l307 356l10 -32h-311v94h422v-85l-309 -359l-7 34h327v-95h-439z" />
    <glyph glyph-name="braceleft" unicode="{" horiz-adv-x="391" 
d="M317 -182q-83 0 -128 40.5t-45 119.5v145q0 50 -14.5 71.5t-49.5 30.5l-37 11v58l37 11q35 9 49.5 30.5t14.5 71.5v145q0 79 46 119.5t127 40.5h62v-95h-42q-28 0 -49 -21.5t-21 -66.5v-151q0 -37 -15 -62t-37.5 -38.5t-44.5 -13.5v4q22 0 44.5 -14t37.5 -40t15 -63v-150
q0 -44 21 -66t49 -22h42v-95h-62z" />
    <glyph glyph-name="bar" unicode="|" horiz-adv-x="282" 
d="M82 -182v894h117v-894h-117z" />
    <glyph glyph-name="braceright" unicode="}" horiz-adv-x="392" 
d="M74 -182h-62v95h43q28 0 48.5 22t20.5 66v150q0 37 15 63t37.5 40t44.5 14v-4q-22 0 -44.5 13.5t-37.5 38.5t-15 62v151q0 45 -20.5 66.5t-48.5 21.5h-43v95h62q81 0 127 -40.5t46 -119.5v-145q0 -50 14.5 -71.5t49.5 -30.5l37 -11v-58l-37 -11q-35 -9 -49.5 -30.5
t-14.5 -71.5v-145q0 -79 -45 -119.5t-128 -40.5z" />
    <glyph glyph-name="asciitilde" unicode="~" horiz-adv-x="600" 
d="M479 357l67 -41q-17 -50 -53 -78t-82 -28q-32 0 -61.5 11t-56.5 26t-51 26t-45 11q-29 0 -47 -16.5t-29 -47.5l-67 43q17 48 53 76.5t82 28.5q32 0 61.5 -11.5t56.5 -25.5t51 -25.5t45 -11.5q29 0 47 16.5t29 46.5z" />
    <glyph glyph-name="uni00A0" unicode="&#xa0;" horiz-adv-x="274" 
 />
    <glyph glyph-name="exclamdown" unicode="&#xa1;" horiz-adv-x="251" 
d="M87 280h76l40 -462h-155zM55 355v139h141v-139h-141z" />
    <glyph glyph-name="cent" unicode="&#xa2;" horiz-adv-x="600" 
d="M340 -7q-78 0 -135.5 32t-89.5 90.5t-32 136.5q0 79 33.5 139t92 93.5t135.5 33.5q55 0 105 -17t81 -47l-36 -88q-31 26 -67.5 39.5t-70.5 13.5q-68 0 -106 -43.5t-38 -121.5q0 -79 37.5 -121.5t106.5 -42.5q34 0 70.5 13.5t67.5 40.5l36 -88q-33 -30 -83.5 -46.5
t-106.5 -16.5zM299 -119v747h102v-747h-102z" />
    <glyph glyph-name="sterling" unicode="&#xa3;" horiz-adv-x="600" 
d="M41 316v81h381v-81h-381zM253 513v-272q0 -49 -11 -80.5t-37.5 -52t-72.5 -34.5l1 30h436v-104h-528v87q47 23 65.5 52.5t18.5 79.5v303q0 60 27 105t76 69t114 24q68 0 128 -21t107 -62l-44 -94q-46 37 -92.5 56t-88.5 19q-49 0 -74 -26.5t-25 -78.5z" />
    <glyph glyph-name="currency" unicode="&#xa4;" horiz-adv-x="600" 
d="M299 -3q-68 0 -123.5 34t-88 90.5t-32.5 125.5q0 70 32.5 126.5t88 90.5t123.5 34q67 0 122.5 -34t88.5 -90.5t33 -126.5q0 -69 -33 -125.5t-88.5 -90.5t-122.5 -34zM99 -9l-51 50l96 100l51 -53zM498 -9l-98 101l48 54l100 -105zM299 96q39 0 71 20.5t51 55t19 75.5
q0 42 -19 76.5t-51 54.5t-71 21q-40 0 -72 -20.5t-51 -55t-19 -76.5q0 -41 18.5 -75.5t51 -55t72.5 -20.5zM131 369l-83 84l52 52l84 -87zM463 362l-54 54l87 90l54 -54z" />
    <glyph glyph-name="yen" unicode="&#xa5;" horiz-adv-x="600" 
d="M235 0v396l27 -91l-281 407h140l193 -288h-28l193 288h140l-282 -407l27 91v-396h-129zM66 166v80h468v-80h-468zM66 320v80h468v-80h-468z" />
    <glyph glyph-name="brokenbar" unicode="&#xa6;" horiz-adv-x="282" 
d="M82 375v337h117v-337h-117zM82 -182v338h117v-338h-117z" />
    <glyph glyph-name="section" unicode="&#xa7;" horiz-adv-x="569" 
d="M431 53l-50 59q17 14 28.5 37t11.5 44q0 31 -22 57t-69 50l-118 59q-47 23 -76.5 49.5t-44.5 57.5t-15 66q0 86 59.5 136t161.5 51q55 0 104.5 -15.5t86.5 -45.5l-34 -85q-36 26 -74 39t-75 13q-51 0 -79 -21t-28 -62q0 -29 17 -50.5t57 -40.5l118 -55q75 -36 109.5 -79
t34.5 -102q0 -50 -27 -93t-76 -69zM269 -189q-63 0 -116 16t-93 47l35 88q42 -29 84.5 -42.5t87.5 -13.5q48 0 76 21.5t28 60.5q0 31 -17 51.5t-57 40.5l-119 55q-76 34 -109.5 77t-33.5 103q0 49 24.5 90t67.5 68l57 -58q-17 -15 -27 -36.5t-10 -41.5q0 -30 22 -55.5
t69 -50.5l120 -58q46 -22 76 -49t44.5 -58.5t14.5 -67.5q0 -89 -58.5 -138.5t-165.5 -48.5z" />
    <glyph glyph-name="dieresis" unicode="&#xa8;" horiz-adv-x="300" 
d="M184 719h121v-115h-121v115zM-2 719h121v-115h-121v115z" />
    <glyph glyph-name="copyright" unicode="&#xa9;" horiz-adv-x="823" 
d="M412 -5q-77 0 -142.5 27.5t-114.5 77t-76.5 115.5t-27.5 142q0 77 27.5 142.5t76.5 114t114.5 76t142.5 27.5t142.5 -27.5t114.5 -76t76.5 -114t27.5 -142.5q0 -76 -27.5 -142t-76.5 -115.5t-114.5 -77t-142.5 -27.5zM412 51q65 0 120 23t96 64.5t63.5 97.5t22.5 121
t-22.5 120.5t-63.5 96.5t-96 64t-120 23t-120.5 -23t-96.5 -64t-63.5 -96.5t-22.5 -120.5t22.5 -121t63.5 -97.5t96.5 -64.5t120.5 -23zM424 138q-99 0 -156.5 59.5t-57.5 159.5q0 66 26 115t74 75.5t114 26.5q45 0 85.5 -13t68.5 -38l-30 -78q-21 16 -50 28t-59 12
q-54 0 -84 -33.5t-30 -94.5q0 -63 30 -96.5t84 -33.5q30 0 59 12t50 28l30 -78q-28 -25 -68.5 -38t-85.5 -13z" />
    <glyph glyph-name="ordfeminine" unicode="&#xaa;" horiz-adv-x="339" 
d="M125 407q-31 0 -54 13.5t-36.5 35t-13.5 45.5q0 45 37 66t131 21h31v-49h-20q-36 0 -53.5 -4t-23.5 -11t-6 -18q0 -12 10.5 -20.5t28.5 -8.5q22 0 37.5 13.5t15.5 38.5v72q0 21 -11.5 30t-37.5 9q-25 0 -50 -6.5t-47 -19.5l-22 74q25 13 59 21t71 8q69 0 103.5 -32
t34.5 -102v-171h-98v68l3 -9q-10 -31 -33.5 -47.5t-55.5 -16.5z" />
    <glyph glyph-name="guillemotleft" unicode="&#xab;" horiz-adv-x="498" 
d="M158 86l-135 181l135 183h107l-130 -182l128 -182h-105zM367 86l-135 181l135 183h107l-130 -182l128 -182h-105z" />
    <glyph glyph-name="logicalnot" unicode="&#xac;" horiz-adv-x="600" 
d="M546 435v-293h-89v205h-403v88h492z" />
    <glyph glyph-name="uni00AD" unicode="&#xad;" horiz-adv-x="438" 
d="M69 220v99h301v-99h-301z" />
    <glyph glyph-name="registered" unicode="&#xae;" horiz-adv-x="823" 
d="M412 -5q-77 0 -142.5 27.5t-114.5 77t-76.5 115.5t-27.5 142q0 77 27.5 142.5t76.5 114t114.5 76t142.5 27.5t142.5 -27.5t114.5 -76t76.5 -114t27.5 -142.5q0 -76 -27.5 -142t-76.5 -115.5t-114.5 -77t-142.5 -27.5zM412 51q65 0 120 23t96 64.5t63.5 97.5t22.5 121
t-22.5 120.5t-63.5 96.5t-96 64t-120 23t-120.5 -23t-96.5 -64t-63.5 -96.5t-22.5 -120.5t22.5 -121t63.5 -97.5t96.5 -64.5t120.5 -23zM246 143v427h193q77 0 117 -36t40 -96q0 -58 -39.5 -94.5t-111.5 -36.5l29 6q26 0 48 -11.5t37 -38.5l65 -120h-124l-72 137
q-7 12 -15.5 17.5t-21.5 5.5h-34v-160h-111zM356 383h69q33 0 48.5 11.5t15.5 38.5q0 28 -15.5 40t-48.5 12h-69v-102z" />
    <glyph glyph-name="macron" unicode="&#xaf;" horiz-adv-x="300" 
d="M-4 620v82h311v-82h-311z" />
    <glyph glyph-name="degree" unicode="&#xb0;" horiz-adv-x="371" 
d="M185 417q-42 0 -77 19.5t-55 54t-20 76.5q0 43 20 77t55 53.5t77 19.5q43 0 77.5 -19.5t54.5 -53.5t20 -77q0 -42 -20 -76.5t-54.5 -54t-77.5 -19.5zM185 485q34 0 56.5 23t22.5 59t-22.5 59t-56.5 23t-56.5 -23t-22.5 -59t22.5 -59t56.5 -23z" />
    <glyph glyph-name="plusminus" unicode="&#xb1;" horiz-adv-x="600" 
d="M546 380v-88h-492v88h492zM256 535h88v-399h-88v399zM546 89v-89h-492v89h492z" />
    <glyph glyph-name="uni00B2" unicode="&#xb2;" horiz-adv-x="380" 
d="M46 285v80l138 147q19 21 30 40t11 37q0 21 -14 32.5t-41 11.5q-26 0 -56.5 -10.5t-57.5 -29.5l-24 79q29 19 71.5 31.5t84.5 12.5q67 0 106.5 -33t39.5 -87q0 -35 -16.5 -68t-62.5 -76l-108 -106l-7 25h206v-86h-300z" />
    <glyph glyph-name="uni00B3" unicode="&#xb3;" horiz-adv-x="380" 
d="M184 281q-43 0 -86 12t-71 31l22 79q29 -18 60.5 -28.5t65.5 -10.5t51 12t17 35q0 25 -17 36.5t-50 11.5h-66v83h55q33 0 49.5 11.5t16.5 36.5q0 20 -14.5 31.5t-41.5 11.5q-29 0 -60.5 -10.5t-58.5 -29.5l-24 79q29 19 71 31.5t79 12.5q75 0 113.5 -34t38.5 -83
q0 -35 -20.5 -61t-54.5 -36l1 5q39 -9 62.5 -36t23.5 -69q0 -34 -19 -61.5t-55 -43.5t-88 -16z" />
    <glyph glyph-name="acute" unicode="&#xb4;" horiz-adv-x="300" 
d="M191 559h-79l99 206h128z" />
    <glyph glyph-name="uni00B5" unicode="&#xb5;" horiz-adv-x="595" 
d="M528 505v-505h-122v104l13 1q-22 -55 -66 -83.5t-103 -28.5q-28 0 -48.5 6t-38.5 18l26 37v-270h-125v721h125v-306q0 -55 23 -81t69 -26q55 0 88 36t33 96v281h126z" />
    <glyph glyph-name="paragraph" unicode="&#xb6;" horiz-adv-x="619" 
d="M541 712v-894h-89v815h-112v-815h-89v467q-64 0 -112 27t-75 75.5t-27 111.5t27 111t75.5 75t114.5 27h287z" />
    <glyph glyph-name="periodcentered" unicode="&#xb7;" horiz-adv-x="251" 
d="M55 340h141v-140h-141v140z" />
    <glyph glyph-name="cedilla" unicode="&#xb8;" horiz-adv-x="300" 
d="M143 -197q-20 0 -46 4.5t-46 13.5l12 53q23 -7 42 -10.5t36 -3.5q23 0 36.5 7.5t13.5 21.5q0 23 -34 23q-11 0 -21 -2t-19 -5l-20 18l12 97h73l-10 -75l-33 5q12 5 26 7t26 2q35 0 58 -18t23 -52q0 -37 -33 -61.5t-96 -24.5z" />
    <glyph glyph-name="uni00B9" unicode="&#xb9;" horiz-adv-x="380" 
d="M163 337v281l45 2l-120 -67v101l105 58h78v-375h-108zM83 285v86h267v-86h-267z" />
    <glyph glyph-name="ordmasculine" unicode="&#xba;" horiz-adv-x="365" 
d="M183 407q-55 0 -92 21t-55 56.5t-18 78.5t18 77.5t55 55.5t92 21t91.5 -21t54.5 -55.5t18 -77.5t-18 -78.5t-54.5 -56.5t-91.5 -21zM183 490q29 0 45 19t16 54q0 36 -16 54t-45 18t-45 -18t-16 -54q0 -35 16 -54t45 -19z" />
    <glyph glyph-name="guillemotright" unicode="&#xbb;" horiz-adv-x="498" 
d="M132 86h-106l129 182l-131 182h108l134 -183zM341 86h-106l129 182l-131 182h108l134 -183z" />
    <glyph glyph-name="onequarter" unicode="&#xbc;" horiz-adv-x="952" 
d="M163 337v281l45 2l-120 -67v101l105 58h78v-375h-108zM83 285v86h267v-86h-267zM309 -28l-84 48l418 720l83 -48zM782 0v310l18 4l-136 -187l-3 25h280v-80h-350v76l202 279h86v-427h-97z" />
    <glyph glyph-name="onehalf" unicode="&#xbd;" horiz-adv-x="952" 
d="M163 337v281l45 2l-120 -67v101l105 58h78v-375h-108zM83 285v86h267v-86h-267zM309 -28l-84 48l418 720l83 -48zM618 0v80l138 147q19 21 30 40t11 37q0 21 -14 32.5t-41 11.5q-26 0 -56.5 -10.5t-57.5 -29.5l-24 79q29 19 71.5 31.5t84.5 12.5q67 0 106.5 -33t39.5 -87
q0 -35 -16.5 -68t-62.5 -76l-108 -106l-7 25h206v-86h-300z" />
    <glyph glyph-name="threequarters" unicode="&#xbe;" horiz-adv-x="952" 
d="M184 281q-43 0 -86 12t-71 31l22 79q29 -18 60.5 -28.5t65.5 -10.5t51 12t17 35q0 25 -17 36.5t-50 11.5h-66v83h55q33 0 49.5 11.5t16.5 36.5q0 20 -14.5 31.5t-41.5 11.5q-29 0 -60.5 -10.5t-58.5 -29.5l-24 79q29 19 71 31.5t79 12.5q75 0 113.5 -34t38.5 -83
q0 -35 -20.5 -61t-54.5 -36l1 5q39 -9 62.5 -36t23.5 -69q0 -34 -19 -61.5t-55 -43.5t-88 -16zM309 -28l-84 48l418 720l83 -48zM782 0v310l18 4l-136 -187l-3 25h280v-80h-350v76l202 279h86v-427h-97z" />
    <glyph glyph-name="questiondown" unicode="&#xbf;" horiz-adv-x="463" 
d="M225 -189q-57 0 -105 19t-76.5 56t-28.5 90q0 41 17.5 71t43.5 53.5t53 46t47 48.5t24 61l5 28h74v-41q0 -45 -13.5 -75t-34 -52.5t-40.5 -41t-34 -39t-14 -48.5q0 -33 23 -53t68 -20q33 0 69 10.5t71 31.5v-106q-34 -21 -72.5 -30t-76.5 -9zM170 355v139h141v-139h-141z
" />
    <glyph glyph-name="Agrave" unicode="&#xc0;" horiz-adv-x="749" 
d="M130 0h-130l322 712h105l322 -712h-128l-262 612h35zM142 167l49 100h363l47 -100h-459zM334 773l-145 155h122l102 -155h-79z" />
    <glyph glyph-name="Aacute" unicode="&#xc1;" horiz-adv-x="749" 
d="M130 0h-130l322 712h105l322 -712h-128l-262 612h35zM142 167l49 100h363l47 -100h-459zM413 773h-79l102 155h122z" />
    <glyph glyph-name="Acircumflex" unicode="&#xc2;" horiz-adv-x="749" 
d="M130 0h-130l322 712h105l322 -712h-128l-262 612h35zM142 167l49 100h363l47 -100h-459zM307 773h-99l128 155h75l128 -155h-99l-66 93z" />
    <glyph glyph-name="Atilde" unicode="&#xc3;" horiz-adv-x="749" 
d="M130 0h-130l322 712h105l322 -712h-128l-262 612h35zM142 167l49 100h363l47 -100h-459zM203 785q0 69 29.5 102.5t72.5 33.5q27 0 51 -14t45.5 -27.5t40.5 -13.5q20 0 32 14.5t13 37.5h57q0 -69 -29.5 -102.5t-72.5 -33.5q-27 0 -51 13.5t-45.5 27.5t-40.5 14
q-20 0 -32 -14.5t-13 -37.5h-57z" />
    <glyph glyph-name="Adieresis" unicode="&#xc4;" horiz-adv-x="749" 
d="M130 0h-130l322 712h105l322 -712h-128l-262 612h35zM142 167l49 100h363l47 -100h-459zM406 908h121v-114h-121v114zM220 908h121v-114h-121v114z" />
    <glyph glyph-name="Aring" unicode="&#xc5;" horiz-adv-x="749" 
d="M375 679q-45 0 -76 30t-31 75q0 44 31 74.5t76 30.5t76.5 -30.5t31.5 -74.5q0 -45 -31.5 -75t-76.5 -30zM375 736q20 0 33 14t13 34t-13 33.5t-33 13.5t-32.5 -13.5t-12.5 -33.5t12.5 -34t32.5 -14zM130 0h-130l322 712h105l322 -712h-128l-262 612h35zM142 167l49 100
h363l47 -100h-459z" />
    <glyph glyph-name="AE" unicode="&#xc6;" horiz-adv-x="1007" 
d="M-20 0l442 712h543v-102h-503l30 17l-372 -627h-140zM140 167l48 100h371l27 -100h-446zM553 0l-50 654h115l44 -552h303v-102h-412zM570 311v102h374v-102h-374z" />
    <glyph glyph-name="Ccedilla" unicode="&#xc7;" horiz-adv-x="684" 
d="M400 -8q-106 0 -184 44.5t-119.5 126.5t-41.5 194q0 111 41.5 192.5t119.5 126t184 44.5q72 0 135.5 -21.5t105.5 -62.5l-42 -94q-49 39 -96 56.5t-101 17.5q-103 0 -159.5 -66.5t-56.5 -192.5t56.5 -193.5t159.5 -67.5q54 0 101 17.5t96 56.5l42 -94
q-42 -41 -105.5 -62.5t-135.5 -21.5zM384 -197q-20 0 -46 4.5t-46 13.5l12 53q23 -7 42 -10.5t36 -3.5q23 0 36.5 7.5t13.5 21.5q0 23 -34 23q-11 0 -21 -2t-19 -5l-20 18l12 97h73l-10 -75l-33 5q12 5 26 7t26 2q35 0 58 -18t23 -52q0 -37 -33 -61.5t-96 -24.5z" />
    <glyph glyph-name="Egrave" unicode="&#xc8;" horiz-adv-x="595" 
d="M77 0v712h476v-101h-350v-198h330v-102h-330v-210h350v-101h-476zM291 773l-145 155h122l102 -155h-79z" />
    <glyph glyph-name="Eacute" unicode="&#xc9;" horiz-adv-x="595" 
d="M77 0v712h476v-101h-350v-198h330v-102h-330v-210h350v-101h-476zM370 773h-79l102 155h122z" />
    <glyph glyph-name="Ecircumflex" unicode="&#xca;" horiz-adv-x="595" 
d="M77 0v712h476v-101h-350v-198h330v-102h-330v-210h350v-101h-476zM264 773h-99l128 155h75l128 -155h-99l-66 93z" />
    <glyph glyph-name="Edieresis" unicode="&#xcb;" horiz-adv-x="595" 
d="M77 0v712h476v-101h-350v-198h330v-102h-330v-210h350v-101h-476zM363 908h121v-114h-121v114zM177 908h121v-114h-121v114z" />
    <glyph glyph-name="Igrave" unicode="&#xcc;" horiz-adv-x="284" 
d="M77 0v712h129v-712h-129zM101 773l-145 155h122l102 -155h-79z" />
    <glyph glyph-name="Iacute" unicode="&#xcd;" horiz-adv-x="284" 
d="M77 0v712h129v-712h-129zM180 773h-79l102 155h122z" />
    <glyph glyph-name="Icircumflex" unicode="&#xce;" horiz-adv-x="284" 
d="M77 0v712h129v-712h-129zM74 773h-99l128 155h75l128 -155h-99l-66 93z" />
    <glyph glyph-name="Idieresis" unicode="&#xcf;" horiz-adv-x="284" 
d="M77 0v712h129v-712h-129zM173 908h121v-114h-121v114zM-13 908h121v-114h-121v114z" />
    <glyph glyph-name="Eth" unicode="&#xd0;" horiz-adv-x="786" 
d="M12 311v98h408v-98h-408zM101 0v712h262q116 0 198 -42t126 -121.5t44 -191.5q0 -113 -43.5 -193t-125.5 -122t-199 -42h-262zM230 105h125q123 0 184.5 63t61.5 189q0 250 -246 250h-125v-502z" />
    <glyph glyph-name="Ntilde" unicode="&#xd1;" horiz-adv-x="755" 
d="M77 0v712h96l410 -533l-27 -14v547h121v-712h-97l-408 531l26 16v-547h-121zM206 785q0 69 29.5 102.5t72.5 33.5q27 0 51 -14t45.5 -27.5t40.5 -13.5q20 0 32 14.5t13 37.5h57q0 -69 -29.5 -102.5t-72.5 -33.5q-27 0 -51 13.5t-45.5 27.5t-40.5 14q-20 0 -32 -14.5
t-13 -37.5h-57z" />
    <glyph glyph-name="Ograve" unicode="&#xd2;" horiz-adv-x="787" 
d="M393 -8q-104 0 -180 44t-117 126t-41 194q0 113 41 194.5t117 125.5t180 44q105 0 181 -44t117 -125.5t41 -193.5q0 -113 -41.5 -195t-117 -126t-180.5 -44zM393 94q98 0 154 67.5t56 195.5t-56 194.5t-154 66.5q-97 0 -153 -66.5t-56 -194.5t56 -195.5t153 -67.5z
M352 773l-145 155h122l102 -155h-79z" />
    <glyph glyph-name="Oacute" unicode="&#xd3;" horiz-adv-x="787" 
d="M393 -8q-104 0 -180 44t-117 126t-41 194q0 113 41 194.5t117 125.5t180 44q105 0 181 -44t117 -125.5t41 -193.5q0 -113 -41.5 -195t-117 -126t-180.5 -44zM393 94q98 0 154 67.5t56 195.5t-56 194.5t-154 66.5q-97 0 -153 -66.5t-56 -194.5t56 -195.5t153 -67.5z
M431 773h-79l102 155h122z" />
    <glyph glyph-name="Ocircumflex" unicode="&#xd4;" horiz-adv-x="787" 
d="M393 -8q-104 0 -180 44t-117 126t-41 194q0 113 41 194.5t117 125.5t180 44q105 0 181 -44t117 -125.5t41 -193.5q0 -113 -41.5 -195t-117 -126t-180.5 -44zM393 94q98 0 154 67.5t56 195.5t-56 194.5t-154 66.5q-97 0 -153 -66.5t-56 -194.5t56 -195.5t153 -67.5z
M325 773h-99l128 155h75l128 -155h-99l-66 93z" />
    <glyph glyph-name="Otilde" unicode="&#xd5;" horiz-adv-x="787" 
d="M393 -8q-104 0 -180 44t-117 126t-41 194q0 113 41 194.5t117 125.5t180 44q105 0 181 -44t117 -125.5t41 -193.5q0 -113 -41.5 -195t-117 -126t-180.5 -44zM393 94q98 0 154 67.5t56 195.5t-56 194.5t-154 66.5q-97 0 -153 -66.5t-56 -194.5t56 -195.5t153 -67.5z
M221 785q0 69 29.5 102.5t72.5 33.5q27 0 51 -14t45.5 -27.5t40.5 -13.5q20 0 32 14.5t13 37.5h57q0 -69 -29.5 -102.5t-72.5 -33.5q-27 0 -51 13.5t-45.5 27.5t-40.5 14q-20 0 -32 -14.5t-13 -37.5h-57z" />
    <glyph glyph-name="Odieresis" unicode="&#xd6;" horiz-adv-x="787" 
d="M393 -8q-104 0 -180 44t-117 126t-41 194q0 113 41 194.5t117 125.5t180 44q105 0 181 -44t117 -125.5t41 -193.5q0 -113 -41.5 -195t-117 -126t-180.5 -44zM393 94q98 0 154 67.5t56 195.5t-56 194.5t-154 66.5q-97 0 -153 -66.5t-56 -194.5t56 -195.5t153 -67.5z
M424 908h121v-114h-121v114zM238 908h121v-114h-121v114z" />
    <glyph glyph-name="multiply" unicode="&#xd7;" horiz-adv-x="600" 
d="M474 525l62 -62l-410 -410l-62 62zM126 525l410 -410l-62 -62l-410 410z" />
    <glyph glyph-name="Oslash" unicode="&#xd8;" horiz-adv-x="787" 
d="M393 -8q-104 0 -180 44t-117 126t-41 194q0 113 41 194.5t117 125.5t180 44q105 0 181 -44t117 -125.5t41 -193.5q0 -113 -41.5 -195t-117 -126t-180.5 -44zM207 -60l-84 50l456 782l84 -50zM393 94q98 0 154 67.5t56 195.5t-56 194.5t-154 66.5q-97 0 -153 -66.5
t-56 -194.5t56 -195.5t153 -67.5z" />
    <glyph glyph-name="Ugrave" unicode="&#xd9;" horiz-adv-x="740" 
d="M371 -8q-147 0 -222.5 75t-75.5 221v424h126v-431q0 -92 43.5 -139.5t128.5 -47.5q82 0 125.5 48t43.5 139v431h128v-424q0 -145 -76.5 -220.5t-220.5 -75.5zM331 773l-145 155h122l102 -155h-79z" />
    <glyph glyph-name="Uacute" unicode="&#xda;" horiz-adv-x="740" 
d="M371 -8q-147 0 -222.5 75t-75.5 221v424h126v-431q0 -92 43.5 -139.5t128.5 -47.5q82 0 125.5 48t43.5 139v431h128v-424q0 -145 -76.5 -220.5t-220.5 -75.5zM410 773h-79l102 155h122z" />
    <glyph glyph-name="Ucircumflex" unicode="&#xdb;" horiz-adv-x="740" 
d="M371 -8q-147 0 -222.5 75t-75.5 221v424h126v-431q0 -92 43.5 -139.5t128.5 -47.5q82 0 125.5 48t43.5 139v431h128v-424q0 -145 -76.5 -220.5t-220.5 -75.5zM304 773h-99l128 155h75l128 -155h-99l-66 93z" />
    <glyph glyph-name="Udieresis" unicode="&#xdc;" horiz-adv-x="740" 
d="M371 -8q-147 0 -222.5 75t-75.5 221v424h126v-431q0 -92 43.5 -139.5t128.5 -47.5q82 0 125.5 48t43.5 139v431h128v-424q0 -145 -76.5 -220.5t-220.5 -75.5zM403 908h121v-114h-121v114zM217 908h121v-114h-121v114z" />
    <glyph glyph-name="Yacute" unicode="&#xdd;" horiz-adv-x="629" 
d="M250 0v320l27 -78l-316 470h147l225 -350h-37l225 350h147l-315 -470l26 78v-320h-129zM353 773h-79l102 155h122z" />
    <glyph glyph-name="Thorn" unicode="&#xde;" horiz-adv-x="666" 
d="M187 160v101h185q69 0 101.5 24.5t32.5 77.5q0 52 -32.5 76t-101.5 24h-185v101h204q113 0 175.5 -53t62.5 -148q0 -96 -63 -149.5t-175 -53.5h-204zM77 0v712h127v-712h-127z" />
    <glyph glyph-name="germandbls" unicode="&#xdf;" horiz-adv-x="673" 
d="M67 0v474q0 133 70 201t200 68q103 0 163 -47t60 -132q0 -42 -15 -78.5t-54.5 -68t-111.5 -56.5v22q94 -19 153.5 -50t87.5 -73t28 -99q0 -51 -25.5 -89t-71.5 -58.5t-108 -20.5q-59 0 -110.5 16t-86.5 47l37 91q38 -32 79.5 -46.5t84.5 -13.5q44 0 64.5 22.5t20.5 56.5
q0 31 -22.5 57.5t-74 50t-140.5 45.5v92q57 21 89.5 43t45.5 48t13 58q0 45 -27.5 67.5t-79.5 22.5q-68 0 -106 -39t-38 -120v-491h-125z" />
    <glyph glyph-name="agrave" unicode="&#xe0;" horiz-adv-x="619" 
d="M264 -7q-66 0 -117 31.5t-78.5 90t-27.5 137.5q0 80 28 139.5t78.5 93t116.5 33.5q64 0 111.5 -31.5t64.5 -87.5l-12 -7v113h123v-505h-123v114l12 -4q-17 -56 -64.5 -86.5t-111.5 -30.5zM298 89q62 0 96 43t34 122q0 81 -34 123.5t-96 42.5q-63 0 -98 -44t-35 -124
q0 -78 35 -120.5t98 -42.5zM270 570l-148 206h128l99 -206h-79z" />
    <glyph glyph-name="aacute" unicode="&#xe1;" horiz-adv-x="619" 
d="M264 -7q-66 0 -117 31.5t-78.5 90t-27.5 137.5q0 80 28 139.5t78.5 93t116.5 33.5q64 0 111.5 -31.5t64.5 -87.5l-12 -7v113h123v-505h-123v114l12 -4q-17 -56 -64.5 -86.5t-111.5 -30.5zM298 89q62 0 96 43t34 122q0 81 -34 123.5t-96 42.5q-63 0 -98 -44t-35 -124
q0 -78 35 -120.5t98 -42.5zM349 570h-79l99 206h128z" />
    <glyph glyph-name="acircumflex" unicode="&#xe2;" horiz-adv-x="619" 
d="M264 -7q-66 0 -117 31.5t-78.5 90t-27.5 137.5q0 80 28 139.5t78.5 93t116.5 33.5q64 0 111.5 -31.5t64.5 -87.5l-12 -7v113h123v-505h-123v114l12 -4q-17 -56 -64.5 -86.5t-111.5 -30.5zM298 89q62 0 96 43t34 122q0 81 -34 123.5t-96 42.5q-63 0 -98 -44t-35 -124
q0 -78 35 -120.5t98 -42.5zM246 570h-102l126 206h79l126 -206h-102l-63 127z" />
    <glyph glyph-name="atilde" unicode="&#xe3;" horiz-adv-x="619" 
d="M264 -7q-66 0 -117 31.5t-78.5 90t-27.5 137.5q0 80 28 139.5t78.5 93t116.5 33.5q64 0 111.5 -31.5t64.5 -87.5l-12 -7v113h123v-505h-123v114l12 -4q-17 -56 -64.5 -86.5t-111.5 -30.5zM298 89q62 0 96 43t34 122q0 81 -34 123.5t-96 42.5q-63 0 -98 -44t-35 -124
q0 -78 35 -120.5t98 -42.5zM139 608q0 68 29.5 101.5t72.5 33.5q27 0 51 -13.5t45.5 -27.5t40.5 -14q20 0 32 14.5t13 37.5h57q0 -68 -29.5 -101.5t-72.5 -33.5q-27 0 -51 13.5t-45.5 27t-40.5 13.5q-20 0 -32 -14.5t-13 -36.5h-57z" />
    <glyph glyph-name="adieresis" unicode="&#xe4;" horiz-adv-x="619" 
d="M264 -7q-66 0 -117 31.5t-78.5 90t-27.5 137.5q0 80 28 139.5t78.5 93t116.5 33.5q64 0 111.5 -31.5t64.5 -87.5l-12 -7v113h123v-505h-123v114l12 -4q-17 -56 -64.5 -86.5t-111.5 -30.5zM298 89q62 0 96 43t34 122q0 81 -34 123.5t-96 42.5q-63 0 -98 -44t-35 -124
q0 -78 35 -120.5t98 -42.5zM342 730h121v-115h-121v115zM156 730h121v-115h-121v115z" />
    <glyph glyph-name="aring" unicode="&#xe5;" horiz-adv-x="619" 
d="M264 -7q-66 0 -117 31.5t-78.5 90t-27.5 137.5q0 80 28 139.5t78.5 93t116.5 33.5q64 0 111.5 -31.5t64.5 -87.5l-12 -7v113h123v-505h-123v114l12 -4q-17 -56 -64.5 -86.5t-111.5 -30.5zM298 89q62 0 96 43t34 122q0 81 -34 123.5t-96 42.5q-63 0 -98 -44t-35 -124
q0 -78 35 -120.5t98 -42.5zM310 568q-45 0 -76.5 30t-31.5 76q0 44 31.5 74.5t76.5 30.5q29 0 53.5 -14.5t39 -38t14.5 -52.5q0 -46 -31.5 -76t-75.5 -30zM310 625q20 0 32.5 14t12.5 35q0 19 -12.5 32.5t-32.5 13.5q-21 0 -33.5 -13.5t-12.5 -33.5t12.5 -34t33.5 -14z" />
    <glyph glyph-name="ae" unicode="&#xe6;" horiz-adv-x="872" 
d="M632 -7q-115 0 -179 67.5t-65 192.5q-1 79 28 138.5t81.5 93t121.5 33.5q65 0 113 -31.5t74.5 -88.5t26.5 -134v-18h-355v67h281l-33 -34q1 72 -27.5 110.5t-82.5 38.5q-58 0 -91 -43.5t-33 -132.5q0 -76 35.5 -119.5t111.5 -43.5q37 0 76 13.5t75 39.5l34 -86
q-35 -29 -87 -46t-105 -17zM244 -7q-56 0 -100.5 20t-69.5 57t-26 85q0 56 28 90.5t91 51t167 16.5h46v-65h-39q-64 0 -101 -10t-53 -29t-16 -48q0 -36 25 -57.5t63 -21.5q36 0 61 16.5t38.5 46t13.5 66.5v110q0 53 -21.5 77t-71.5 24q-43 0 -87.5 -13.5t-87.5 -39.5l-35 86
q28 19 64 33t75.5 22t74.5 8q101 0 149.5 -51.5t48.5 -156.5v-112l-41 -6q-3 -95 -56.5 -147t-139.5 -52z" />
    <glyph glyph-name="ccedilla" unicode="&#xe7;" horiz-adv-x="504" 
d="M296 -7q-79 0 -136.5 31.5t-88 90t-30.5 137.5q0 80 32 140t91 93t138 33q53 0 103.5 -17t82.5 -47l-36 -88q-32 26 -68 39.5t-72 13.5q-66 0 -104.5 -42t-38.5 -123q0 -80 38 -122t106 -42q35 0 71 13.5t68 40.5l36 -88q-33 -30 -84.5 -46.5t-107.5 -16.5zM280 -197
q-20 0 -46 4.5t-46 13.5l12 53q23 -7 42 -10.5t36 -3.5q23 0 36.5 7.5t13.5 21.5q0 23 -34 23q-11 0 -21 -2t-19 -5l-20 18l12 97h73l-10 -75l-33 5q12 5 26 7t26 2q35 0 58 -18t23 -52q0 -37 -33 -61.5t-96 -24.5z" />
    <glyph glyph-name="egrave" unicode="&#xe8;" horiz-adv-x="548" 
d="M501 56q-36 -30 -88.5 -46.5t-106.5 -16.5q-82 0 -141.5 31t-91.5 90t-32 140q0 78 31 137.5t86 93t127 33.5q70 0 120 -30.5t77.5 -87.5t27.5 -135v-19h-359l1 67h284l-34 -34q1 73 -28.5 111t-85.5 38q-60 0 -93 -42.5t-33 -121.5q0 -90 37 -132.5t112 -42.5
q41 0 80.5 13.5t73.5 39.5zM245 570l-148 206h128l99 -206h-79z" />
    <glyph glyph-name="eacute" unicode="&#xe9;" horiz-adv-x="548" 
d="M501 56q-36 -30 -88.5 -46.5t-106.5 -16.5q-82 0 -141.5 31t-91.5 90t-32 140q0 78 31 137.5t86 93t127 33.5q70 0 120 -30.5t77.5 -87.5t27.5 -135v-19h-359l1 67h284l-34 -34q1 73 -28.5 111t-85.5 38q-60 0 -93 -42.5t-33 -121.5q0 -90 37 -132.5t112 -42.5
q41 0 80.5 13.5t73.5 39.5zM324 570h-79l99 206h128z" />
    <glyph glyph-name="ecircumflex" unicode="&#xea;" horiz-adv-x="548" 
d="M501 56q-36 -30 -88.5 -46.5t-106.5 -16.5q-82 0 -141.5 31t-91.5 90t-32 140q0 78 31 137.5t86 93t127 33.5q70 0 120 -30.5t77.5 -87.5t27.5 -135v-19h-359l1 67h284l-34 -34q1 73 -28.5 111t-85.5 38q-60 0 -93 -42.5t-33 -121.5q0 -90 37 -132.5t112 -42.5
q41 0 80.5 13.5t73.5 39.5zM221 570h-102l126 206h79l126 -206h-102l-63 127z" />
    <glyph glyph-name="edieresis" unicode="&#xeb;" horiz-adv-x="548" 
d="M501 56q-36 -30 -88.5 -46.5t-106.5 -16.5q-82 0 -141.5 31t-91.5 90t-32 140q0 78 31 137.5t86 93t127 33.5q70 0 120 -30.5t77.5 -87.5t27.5 -135v-19h-359l1 67h284l-34 -34q1 73 -28.5 111t-85.5 38q-60 0 -93 -42.5t-33 -121.5q0 -90 37 -132.5t112 -42.5
q41 0 80.5 13.5t73.5 39.5zM317 730h121v-115h-121v115zM131 730h121v-115h-121v115z" />
    <glyph glyph-name="igrave" unicode="&#xec;" horiz-adv-x="260" 
d="M67 0v505h125v-505h-125zM91 570l-148 206h128l99 -206h-79z" />
    <glyph glyph-name="iacute" unicode="&#xed;" horiz-adv-x="260" 
d="M67 0v505h125v-505h-125zM170 570h-79l99 206h128z" />
    <glyph glyph-name="icircumflex" unicode="&#xee;" horiz-adv-x="260" 
d="M67 0v505h125v-505h-125zM67 570h-102l126 206h79l126 -206h-102l-63 127z" />
    <glyph glyph-name="idieresis" unicode="&#xef;" horiz-adv-x="260" 
d="M67 0v505h125v-505h-125zM163 730h121v-115h-121v115zM-23 730h121v-115h-121v115z" />
    <glyph glyph-name="eth" unicode="&#xf0;" horiz-adv-x="598" 
d="M292 -7q-75 0 -131.5 29.5t-88 83.5t-31.5 125q0 72 30.5 125.5t85 83.5t125.5 30q79 0 127.5 -37.5t67.5 -111.5l-37 3q1 91 -35.5 160t-100.5 113t-148 61l29 88q92 -17 161.5 -58.5t116.5 -101t71 -132t24 -151.5q0 -150 -69 -230t-197 -80zM297 89q61 0 95 37.5
t34 104.5q0 70 -33.5 107t-95.5 37q-63 0 -97.5 -37t-34.5 -107q0 -69 34 -105.5t98 -36.5zM178 504l-20 68l377 115l18 -68z" />
    <glyph glyph-name="ntilde" unicode="&#xf1;" horiz-adv-x="602" 
d="M67 0v362q0 36 -1.5 72t-6.5 71h118l11 -100l-11 -3q24 57 71.5 86.5t109.5 29.5q180 0 180 -208v-310h-125v305q0 59 -23 86.5t-71 27.5q-58 0 -92.5 -36.5t-34.5 -96.5v-286h-125zM132 608q0 68 29.5 101.5t72.5 33.5q27 0 51 -13.5t45.5 -27.5t40.5 -14q20 0 32 14.5
t13 37.5h57q0 -68 -29.5 -101.5t-72.5 -33.5q-27 0 -51 13.5t-45.5 27t-40.5 13.5q-20 0 -32 -14.5t-13 -36.5h-57z" />
    <glyph glyph-name="ograve" unicode="&#xf2;" horiz-adv-x="592" 
d="M297 -7q-79 0 -136.5 32t-88.5 90.5t-31 139.5q0 80 31 139.5t88.5 91.5t136.5 32q77 0 134.5 -32t89 -91.5t31.5 -139.5q0 -81 -31.5 -139.5t-89 -90.5t-134.5 -32zM297 89q62 0 95.5 41.5t33.5 124.5q0 82 -33.5 123.5t-95.5 41.5q-63 0 -97.5 -41.5t-34.5 -123.5
q0 -83 34 -124.5t98 -41.5zM257 570l-148 206h128l99 -206h-79z" />
    <glyph glyph-name="oacute" unicode="&#xf3;" horiz-adv-x="592" 
d="M297 -7q-79 0 -136.5 32t-88.5 90.5t-31 139.5q0 80 31 139.5t88.5 91.5t136.5 32q77 0 134.5 -32t89 -91.5t31.5 -139.5q0 -81 -31.5 -139.5t-89 -90.5t-134.5 -32zM297 89q62 0 95.5 41.5t33.5 124.5q0 82 -33.5 123.5t-95.5 41.5q-63 0 -97.5 -41.5t-34.5 -123.5
q0 -83 34 -124.5t98 -41.5zM336 570h-79l99 206h128z" />
    <glyph glyph-name="ocircumflex" unicode="&#xf4;" horiz-adv-x="592" 
d="M297 -7q-79 0 -136.5 32t-88.5 90.5t-31 139.5q0 80 31 139.5t88.5 91.5t136.5 32q77 0 134.5 -32t89 -91.5t31.5 -139.5q0 -81 -31.5 -139.5t-89 -90.5t-134.5 -32zM297 89q62 0 95.5 41.5t33.5 124.5q0 82 -33.5 123.5t-95.5 41.5q-63 0 -97.5 -41.5t-34.5 -123.5
q0 -83 34 -124.5t98 -41.5zM233 570h-102l126 206h79l126 -206h-102l-63 127z" />
    <glyph glyph-name="otilde" unicode="&#xf5;" horiz-adv-x="592" 
d="M297 -7q-79 0 -136.5 32t-88.5 90.5t-31 139.5q0 80 31 139.5t88.5 91.5t136.5 32q77 0 134.5 -32t89 -91.5t31.5 -139.5q0 -81 -31.5 -139.5t-89 -90.5t-134.5 -32zM297 89q62 0 95.5 41.5t33.5 124.5q0 82 -33.5 123.5t-95.5 41.5q-63 0 -97.5 -41.5t-34.5 -123.5
q0 -83 34 -124.5t98 -41.5zM126 608q0 68 29.5 101.5t72.5 33.5q27 0 51 -13.5t45.5 -27.5t40.5 -14q20 0 32 14.5t13 37.5h57q0 -68 -29.5 -101.5t-72.5 -33.5q-27 0 -51 13.5t-45.5 27t-40.5 13.5q-20 0 -32 -14.5t-13 -36.5h-57z" />
    <glyph glyph-name="odieresis" unicode="&#xf6;" horiz-adv-x="592" 
d="M297 -7q-79 0 -136.5 32t-88.5 90.5t-31 139.5q0 80 31 139.5t88.5 91.5t136.5 32q77 0 134.5 -32t89 -91.5t31.5 -139.5q0 -81 -31.5 -139.5t-89 -90.5t-134.5 -32zM297 89q62 0 95.5 41.5t33.5 124.5q0 82 -33.5 123.5t-95.5 41.5q-63 0 -97.5 -41.5t-34.5 -123.5
q0 -83 34 -124.5t98 -41.5zM329 730h121v-115h-121v115zM143 730h121v-115h-121v115z" />
    <glyph glyph-name="divide" unicode="&#xf7;" horiz-adv-x="600" 
d="M239 428v111h110v-111h-110zM239 34v111h110v-111h-110zM546 333v-88h-492v88h492z" />
    <glyph glyph-name="oslash" unicode="&#xf8;" horiz-adv-x="592" 
d="M297 -7q-79 0 -136.5 32t-88.5 90.5t-31 139.5q0 80 31 139.5t88.5 91.5t136.5 32q77 0 134.5 -32t89 -91.5t31.5 -139.5q0 -81 -31.5 -139.5t-89 -90.5t-134.5 -32zM157 -58l-63 38l341 586l64 -36zM297 89q64 0 98 41.5t34 124.5q0 82 -34.5 124.5t-97.5 42.5
q-65 0 -99.5 -42.5t-34.5 -124.5q0 -83 34.5 -124.5t99.5 -41.5z" />
    <glyph glyph-name="ugrave" unicode="&#xf9;" horiz-adv-x="595" 
d="M250 -7q-93 0 -139.5 51.5t-46.5 155.5v305h125v-306q0 -55 23 -81t69 -26q55 0 88 36t33 96v281h126v-505h-122v104l13 1q-22 -55 -66 -83.5t-103 -28.5zM258 570l-148 206h128l99 -206h-79z" />
    <glyph glyph-name="uacute" unicode="&#xfa;" horiz-adv-x="595" 
d="M250 -7q-93 0 -139.5 51.5t-46.5 155.5v305h125v-306q0 -55 23 -81t69 -26q55 0 88 36t33 96v281h126v-505h-122v104l13 1q-22 -55 -66 -83.5t-103 -28.5zM337 570h-79l99 206h128z" />
    <glyph glyph-name="ucircumflex" unicode="&#xfb;" horiz-adv-x="595" 
d="M250 -7q-93 0 -139.5 51.5t-46.5 155.5v305h125v-306q0 -55 23 -81t69 -26q55 0 88 36t33 96v281h126v-505h-122v104l13 1q-22 -55 -66 -83.5t-103 -28.5zM234 570h-102l126 206h79l126 -206h-102l-63 127z" />
    <glyph glyph-name="udieresis" unicode="&#xfc;" horiz-adv-x="595" 
d="M250 -7q-93 0 -139.5 51.5t-46.5 155.5v305h125v-306q0 -55 23 -81t69 -26q55 0 88 36t33 96v281h126v-505h-122v104l13 1q-22 -55 -66 -83.5t-103 -28.5zM330 730h121v-115h-121v115zM144 730h121v-115h-121v115z" />
    <glyph glyph-name="yacute" unicode="&#xfd;" horiz-adv-x="543" 
d="M56 -227l-28 96q47 10 78 23.5t51.5 34.5t34.5 54l36 82l32 46l162 396h124l-234 -539q-29 -66 -67 -105.5t-85.5 -59.5t-103.5 -28zM231 -33l-233 538h131l159 -396zM311 570h-79l99 206h128z" />
    <glyph glyph-name="thorn" unicode="&#xfe;" horiz-adv-x="620" 
d="M67 -216v952h125v-351l-11 14q16 56 63 87.5t111 31.5q66 0 116.5 -33t79.5 -92.5t29 -140.5q0 -80 -29 -138.5t-79.5 -89.5t-116.5 -31q-64 0 -111 30.5t-63 86.5l11 16v-342h-125zM323 89q63 0 96.5 42.5t33.5 120.5q0 79 -34 123.5t-96 44.5q-64 0 -97.5 -42.5
t-33.5 -123.5q0 -79 33.5 -122t97.5 -43z" />
    <glyph glyph-name="ydieresis" unicode="&#xff;" horiz-adv-x="543" 
d="M56 -227l-28 96q47 10 78 23.5t51.5 34.5t34.5 54l36 82l32 46l162 396h124l-234 -539q-29 -66 -67 -105.5t-85.5 -59.5t-103.5 -28zM231 -33l-233 538h131l159 -396zM304 730h121v-115h-121v115zM118 730h121v-115h-121v115z" />
    <glyph glyph-name="Amacron" unicode="&#x100;" horiz-adv-x="749" 
d="M130 0h-130l322 712h105l322 -712h-128l-262 612h35zM142 167l49 100h363l47 -100h-459zM218 810v82h311v-82h-311z" />
    <glyph glyph-name="amacron" unicode="&#x101;" horiz-adv-x="619" 
d="M264 -7q-66 0 -117 31.5t-78.5 90t-27.5 137.5q0 80 28 139.5t78.5 93t116.5 33.5q64 0 111.5 -31.5t64.5 -87.5l-12 -7v113h123v-505h-123v114l12 -4q-17 -56 -64.5 -86.5t-111.5 -30.5zM298 89q62 0 96 43t34 122q0 81 -34 123.5t-96 42.5q-63 0 -98 -44t-35 -124
q0 -78 35 -120.5t98 -42.5zM154 631v82h311v-82h-311z" />
    <glyph glyph-name="Abreve" unicode="&#x102;" horiz-adv-x="749" 
d="M130 0h-130l322 712h105l322 -712h-128l-262 612h35zM142 167l49 100h363l47 -100h-459zM374 783q-60 0 -106.5 26t-67.5 83l62 27q21 -34 49.5 -46t62.5 -12t62 12t49 46l62 -27q-21 -57 -67.5 -83t-105.5 -26z" />
    <glyph glyph-name="abreve" unicode="&#x103;" horiz-adv-x="619" 
d="M264 -7q-66 0 -117 31.5t-78.5 90t-27.5 137.5q0 80 28 139.5t78.5 93t116.5 33.5q64 0 111.5 -31.5t64.5 -87.5l-12 -7v113h123v-505h-123v114l12 -4q-17 -56 -64.5 -86.5t-111.5 -30.5zM298 89q62 0 96 43t34 122q0 81 -34 123.5t-96 42.5q-63 0 -98 -44t-35 -124
q0 -78 35 -120.5t98 -42.5zM310 596q-39 0 -75 14.5t-64 45t-41 79.5l63 27q24 -46 53.5 -65t63.5 -19t63 19t53 65l63 -27q-13 -49 -40.5 -79.5t-64 -45t-74.5 -14.5z" />
    <glyph glyph-name="Aogonek" unicode="&#x104;" horiz-adv-x="749" 
d="M142 167l49 100h363l47 -100h-459zM748 -113l18 -63q-21 -10 -45.5 -15.5t-50.5 -5.5q-54 0 -89.5 30t-35.5 78q0 42 25.5 75t72.5 49l-22 -35l-262 612h35l-264 -612h-130l322 712h105l322 -712h-39q-38 0 -59 -20.5t-21 -50.5q0 -28 16.5 -42.5t45.5 -14.5
q13 0 27.5 3.5t28.5 11.5z" />
    <glyph glyph-name="aogonek" unicode="&#x105;" horiz-adv-x="619" 
d="M551 0h-7q-40 0 -65 -20.5t-25 -52.5q0 -28 17 -43.5t48 -15.5q27 0 58 16l17 -64q-21 -10 -46.5 -16t-51.5 -6q-55 0 -90.5 32t-35.5 81q0 45 28.5 78.5t80.5 49.5l-16 -39h-35v106l12 4q-17 -56 -64.5 -86.5t-111.5 -30.5q-68 0 -118 32t-77.5 90.5t-27.5 136.5
q0 79 28 139t78 93.5t117 33.5q64 0 111.5 -31.5t64.5 -87.5l-12 -7v113h123v-505zM298 89q62 0 96 43t34 122q0 81 -34 123.5t-96 42.5q-63 0 -98 -44t-35 -124q0 -78 35 -120.5t98 -42.5z" />
    <glyph glyph-name="Cacute" unicode="&#x106;" horiz-adv-x="684" 
d="M400 -8q-106 0 -184 44.5t-119.5 126.5t-41.5 194q0 111 41.5 192.5t119.5 126t184 44.5q72 0 135.5 -21.5t105.5 -62.5l-42 -94q-49 39 -96 56.5t-101 17.5q-103 0 -159.5 -66.5t-56.5 -192.5t56.5 -193.5t159.5 -67.5q54 0 101 17.5t96 56.5l42 -94
q-42 -41 -105.5 -62.5t-135.5 -21.5zM434 773h-79l102 155h122z" />
    <glyph glyph-name="cacute" unicode="&#x107;" horiz-adv-x="504" 
d="M296 -7q-79 0 -136.5 31.5t-88 90t-30.5 137.5q0 80 32 140t91 93t138 33q53 0 103.5 -17t82.5 -47l-36 -88q-32 26 -68 39.5t-72 13.5q-66 0 -104.5 -42t-38.5 -123q0 -80 38 -122t106 -42q35 0 71 13.5t68 40.5l36 -88q-33 -30 -84.5 -46.5t-107.5 -16.5zM337 570h-79
l99 206h128z" />
    <glyph glyph-name="Ccircumflex" unicode="&#x108;" horiz-adv-x="684" 
d="M400 -8q-106 0 -184 44.5t-119.5 126.5t-41.5 194q0 111 41.5 192.5t119.5 126t184 44.5q72 0 135.5 -21.5t105.5 -62.5l-42 -94q-49 39 -96 56.5t-101 17.5q-103 0 -159.5 -66.5t-56.5 -192.5t56.5 -193.5t159.5 -67.5q54 0 101 17.5t96 56.5l42 -94
q-42 -41 -105.5 -62.5t-135.5 -21.5zM328 773h-99l128 155h75l128 -155h-99l-66 93z" />
    <glyph glyph-name="ccircumflex" unicode="&#x109;" horiz-adv-x="504" 
d="M296 -7q-79 0 -136.5 31.5t-88 90t-30.5 137.5q0 80 32 140t91 93t138 33q53 0 103.5 -17t82.5 -47l-36 -88q-32 26 -68 39.5t-72 13.5q-66 0 -104.5 -42t-38.5 -123q0 -80 38 -122t106 -42q35 0 71 13.5t68 40.5l36 -88q-33 -30 -84.5 -46.5t-107.5 -16.5zM234 570h-102
l126 206h79l126 -206h-102l-63 127z" />
    <glyph glyph-name="Cdotaccent" unicode="&#x10a;" horiz-adv-x="684" 
d="M400 -8q-106 0 -184 44.5t-119.5 126.5t-41.5 194q0 111 41.5 192.5t119.5 126t184 44.5q72 0 135.5 -21.5t105.5 -62.5l-42 -94q-49 39 -96 56.5t-101 17.5q-103 0 -159.5 -66.5t-56.5 -192.5t56.5 -193.5t159.5 -67.5q54 0 101 17.5t96 56.5l42 -94
q-42 -41 -105.5 -62.5t-135.5 -21.5zM325 913h139v-124h-139v124z" />
    <glyph glyph-name="cdotaccent" unicode="&#x10b;" horiz-adv-x="504" 
d="M296 -7q-79 0 -136.5 31.5t-88 90t-30.5 137.5q0 80 32 140t91 93t138 33q53 0 103.5 -17t82.5 -47l-36 -88q-32 26 -68 39.5t-72 13.5q-66 0 -104.5 -42t-38.5 -123q0 -80 38 -122t106 -42q35 0 71 13.5t68 40.5l36 -88q-33 -30 -84.5 -46.5t-107.5 -16.5zM228 734h139
v-123h-139v123z" />
    <glyph glyph-name="Ccaron" unicode="&#x10c;" horiz-adv-x="684" 
d="M400 -8q-106 0 -184 44.5t-119.5 126.5t-41.5 194q0 111 41.5 192.5t119.5 126t184 44.5q72 0 135.5 -21.5t105.5 -62.5l-42 -94q-49 39 -96 56.5t-101 17.5q-103 0 -159.5 -66.5t-56.5 -192.5t56.5 -193.5t159.5 -67.5q54 0 101 17.5t96 56.5l42 -94
q-42 -41 -105.5 -62.5t-135.5 -21.5zM461 928h99l-128 -155h-75l-128 155h99l67 -93z" />
    <glyph glyph-name="ccaron" unicode="&#x10d;" horiz-adv-x="504" 
d="M296 -7q-79 0 -136.5 31.5t-88 90t-30.5 137.5q0 80 32 140t91 93t138 33q53 0 103.5 -17t82.5 -47l-36 -88q-32 26 -68 39.5t-72 13.5q-66 0 -104.5 -42t-38.5 -123q0 -80 38 -122t106 -42q35 0 71 13.5t68 40.5l36 -88q-33 -30 -84.5 -46.5t-107.5 -16.5zM361 776h102
l-126 -206h-79l-126 206h102l64 -128z" />
    <glyph glyph-name="Dcaron" unicode="&#x10e;" horiz-adv-x="761" 
d="M77 0v712h262q117 0 199 -42t125.5 -121.5t43.5 -191.5q0 -113 -43.5 -193t-126 -122t-198.5 -42h-262zM206 105h125q123 0 184.5 63t61.5 189q0 250 -246 250h-125v-502zM446 928h99l-128 -155h-75l-128 155h99l67 -93z" />
    <glyph glyph-name="dcaron" unicode="&#x10f;" horiz-adv-x="619" 
d="M629 538h-47v198h74zM551 0h-123v128l12 -18q-17 -56 -64.5 -86.5t-111.5 -30.5q-66 0 -116.5 32.5t-78.5 92.5t-28 139t27.5 138t78.5 91t117 32q64 0 111.5 -32t64.5 -86l-14 -15v351h125v-736zM298 89q62 0 96 43t34 123q0 79 -34 122t-96 43q-63 0 -98 -42.5
t-35 -120.5q0 -80 35 -124t98 -44z" />
    <glyph glyph-name="Dcroat" unicode="&#x110;" horiz-adv-x="786" 
d="M12 311v98h408v-98h-408zM101 0v712h262q116 0 198 -42t126 -121.5t44 -191.5q0 -113 -43.5 -193t-125.5 -122t-199 -42h-262zM230 105h125q123 0 184.5 63t61.5 189q0 250 -246 250h-125v-502z" />
    <glyph glyph-name="dcroat" unicode="&#x111;" horiz-adv-x="619" 
d="M232 568v89h411v-89h-411zM551 0h-123v128l12 -18q-17 -56 -64.5 -86.5t-111.5 -30.5q-66 0 -116.5 32.5t-78.5 92.5t-28 139t27.5 138t78.5 91t117 32q64 0 111.5 -32t64.5 -86l-14 -15v351h125v-736zM298 89q62 0 96 43t34 123q0 79 -34 122t-96 43q-63 0 -98 -42.5
t-35 -120.5q0 -80 35 -124t98 -44z" />
    <glyph glyph-name="Emacron" unicode="&#x112;" horiz-adv-x="595" 
d="M77 0v712h476v-101h-350v-198h330v-102h-330v-210h350v-101h-476zM175 810v82h311v-82h-311z" />
    <glyph glyph-name="emacron" unicode="&#x113;" horiz-adv-x="548" 
d="M501 56q-36 -30 -88.5 -46.5t-106.5 -16.5q-82 0 -141.5 31t-91.5 90t-32 140q0 78 31 137.5t86 93t127 33.5q70 0 120 -30.5t77.5 -87.5t27.5 -135v-19h-359l1 67h284l-34 -34q1 73 -28.5 111t-85.5 38q-60 0 -93 -42.5t-33 -121.5q0 -90 37 -132.5t112 -42.5
q41 0 80.5 13.5t73.5 39.5zM129 631v82h311v-82h-311z" />
    <glyph glyph-name="Ebreve" unicode="&#x114;" horiz-adv-x="595" 
d="M77 0v712h476v-101h-350v-198h330v-102h-330v-210h350v-101h-476zM331 783q-60 0 -106.5 26t-67.5 83l62 27q21 -34 49.5 -46t62.5 -12t62 12t49 46l62 -27q-21 -57 -67.5 -83t-105.5 -26z" />
    <glyph glyph-name="ebreve" unicode="&#x115;" horiz-adv-x="548" 
d="M501 56q-36 -30 -88.5 -46.5t-106.5 -16.5q-82 0 -141.5 31t-91.5 90t-32 140q0 78 31 137.5t86 93t127 33.5q70 0 120 -30.5t77.5 -87.5t27.5 -135v-19h-359l1 67h284l-34 -34q1 73 -28.5 111t-85.5 38q-60 0 -93 -42.5t-33 -121.5q0 -90 37 -132.5t112 -42.5
q41 0 80.5 13.5t73.5 39.5zM285 596q-39 0 -75 14.5t-64 45t-41 79.5l63 27q24 -46 53.5 -65t63.5 -19t63 19t53 65l63 -27q-13 -49 -40.5 -79.5t-64 -45t-74.5 -14.5z" />
    <glyph glyph-name="Edotaccent" unicode="&#x116;" horiz-adv-x="595" 
d="M77 0v712h476v-101h-350v-198h330v-102h-330v-210h350v-101h-476zM261 913h139v-124h-139v124z" />
    <glyph glyph-name="edotaccent" unicode="&#x117;" horiz-adv-x="548" 
d="M501 56q-36 -30 -88.5 -46.5t-106.5 -16.5q-82 0 -141.5 31t-91.5 90t-32 140q0 78 31 137.5t86 93t127 33.5q70 0 120 -30.5t77.5 -87.5t27.5 -135v-19h-359l1 67h284l-34 -34q1 73 -28.5 111t-85.5 38q-60 0 -93 -42.5t-33 -121.5q0 -90 37 -132.5t112 -42.5
q41 0 80.5 13.5t73.5 39.5zM215 734h139v-123h-139v123z" />
    <glyph glyph-name="Eogonek" unicode="&#x118;" horiz-adv-x="595" 
d="M574 -113l17 -63q-21 -10 -45.5 -15.5t-50.5 -5.5q-56 0 -90.5 30.5t-34.5 77.5q0 71 67 108l18 -19h-378v712h476v-101h-350v-198h330v-102h-330v-210h350v-101h-19q-38 0 -58.5 -19.5t-20.5 -51.5q0 -28 16.5 -42.5t45.5 -14.5q12 0 26.5 3.5t30.5 11.5z" />
    <glyph glyph-name="eogonek" unicode="&#x119;" horiz-adv-x="548" 
d="M403 -202q-56 0 -91.5 31.5t-35.5 79.5q0 32 16.5 59t46.5 45l24 -14q-16 -3 -29 -4.5t-28 -1.5q-82 0 -141.5 31t-91.5 90t-32 140q0 78 31 137.5t86 93t127 33.5q70 0 120 -30.5t77.5 -87.5t27.5 -135v-19h-359l1 67h284l-34 -34q1 73 -28.5 111t-85.5 38
q-60 0 -93 -43.5t-33 -120.5q0 -90 37 -132.5t112 -42.5q41 0 80.5 13.5t73.5 39.5l36 -85q-8 -8 -19 -14.5t-38 -19.5q-45 -24 -63.5 -45.5t-18.5 -50.5q0 -28 16.5 -43.5t46.5 -15.5q28 0 58 16l17 -64q-21 -10 -45.5 -16t-51.5 -6z" />
    <glyph glyph-name="Ecaron" unicode="&#x11a;" horiz-adv-x="595" 
d="M77 0v712h476v-101h-350v-198h330v-102h-330v-210h350v-101h-476zM397 928h99l-128 -155h-75l-128 155h99l67 -93z" />
    <glyph glyph-name="ecaron" unicode="&#x11b;" horiz-adv-x="548" 
d="M501 56q-36 -30 -88.5 -46.5t-106.5 -16.5q-82 0 -141.5 31t-91.5 90t-32 140q0 78 31 137.5t86 93t127 33.5q70 0 120 -30.5t77.5 -87.5t27.5 -135v-19h-359l1 67h284l-34 -34q1 73 -28.5 111t-85.5 38q-60 0 -93 -42.5t-33 -121.5q0 -90 37 -132.5t112 -42.5
q41 0 80.5 13.5t73.5 39.5zM348 776h102l-126 -206h-79l-126 206h102l64 -128z" />
    <glyph glyph-name="Gcircumflex" unicode="&#x11c;" horiz-adv-x="740" 
d="M412 -8q-111 0 -191.5 43.5t-123 125t-42.5 196.5q0 113 42.5 194.5t121.5 125t187 43.5q75 0 140 -21t110 -62l-44 -94q-51 39 -99 56.5t-105 17.5q-109 0 -165.5 -66t-56.5 -194q0 -131 58 -197.5t173 -66.5q44 0 86.5 7.5t80.5 21.5l-30 -48v218h-153v93h270v-342
q-33 -17 -75 -28t-89 -17t-95 -6zM338 773h-99l128 155h75l128 -155h-99l-66 93z" />
    <glyph glyph-name="gcircumflex" unicode="&#x11d;" horiz-adv-x="623" 
d="M299 -223q-117 0 -205 48l20 95q46 -24 90.5 -35.5t92.5 -11.5q67 0 101 33t34 100v125h12q-12 -32 -37.5 -58.5t-61.5 -42t-79 -15.5q-66 0 -117 31t-79.5 87.5t-28.5 132.5t28.5 132.5t79.5 88t117 31.5q65 0 113 -32t65 -86l-12 -2v107h124v-489q0 -118 -65 -178.5
t-192 -60.5zM300 112q62 0 97 41t35 113t-35 113t-97 41q-63 0 -99 -41t-36 -113t36 -113t99 -41zM249 570h-102l126 206h79l126 -206h-102l-63 127z" />
    <glyph glyph-name="Gbreve" unicode="&#x11e;" horiz-adv-x="740" 
d="M412 -8q-111 0 -191.5 43.5t-123 125t-42.5 196.5q0 113 42.5 194.5t121.5 125t187 43.5q75 0 140 -21t110 -62l-44 -94q-51 39 -99 56.5t-105 17.5q-109 0 -165.5 -66t-56.5 -194q0 -131 58 -197.5t173 -66.5q44 0 86.5 7.5t80.5 21.5l-30 -48v218h-153v93h270v-342
q-33 -17 -75 -28t-89 -17t-95 -6zM405 783q-60 0 -106.5 26t-67.5 83l62 27q21 -34 49.5 -46t62.5 -12t62 12t49 46l62 -27q-21 -57 -67.5 -83t-105.5 -26z" />
    <glyph glyph-name="gbreve" unicode="&#x11f;" horiz-adv-x="623" 
d="M299 -223q-117 0 -205 48l20 95q46 -24 90.5 -35.5t92.5 -11.5q67 0 101 33t34 100v125h12q-12 -32 -37.5 -58.5t-61.5 -42t-79 -15.5q-66 0 -117 31t-79.5 87.5t-28.5 132.5t28.5 132.5t79.5 88t117 31.5q65 0 113 -32t65 -86l-12 -2v107h124v-489q0 -118 -65 -178.5
t-192 -60.5zM300 112q62 0 97 41t35 113t-35 113t-97 41q-63 0 -99 -41t-36 -113t36 -113t99 -41zM313 596q-39 0 -75 14.5t-64 45t-41 79.5l63 27q24 -46 53.5 -65t63.5 -19t63 19t53 65l63 -27q-13 -49 -40.5 -79.5t-64 -45t-74.5 -14.5z" />
    <glyph glyph-name="Gdotaccent" unicode="&#x120;" horiz-adv-x="740" 
d="M412 -8q-111 0 -191.5 43.5t-123 125t-42.5 196.5q0 113 42.5 194.5t121.5 125t187 43.5q75 0 140 -21t110 -62l-44 -94q-51 39 -99 56.5t-105 17.5q-109 0 -165.5 -66t-56.5 -194q0 -131 58 -197.5t173 -66.5q44 0 86.5 7.5t80.5 21.5l-30 -48v218h-153v93h270v-342
q-33 -17 -75 -28t-89 -17t-95 -6zM335 913h139v-124h-139v124z" />
    <glyph glyph-name="gdotaccent" unicode="&#x121;" horiz-adv-x="623" 
d="M299 -223q-117 0 -205 48l20 95q46 -24 90.5 -35.5t92.5 -11.5q67 0 101 33t34 100v125h12q-12 -32 -37.5 -58.5t-61.5 -42t-79 -15.5q-66 0 -117 31t-79.5 87.5t-28.5 132.5t28.5 132.5t79.5 88t117 31.5q65 0 113 -32t65 -86l-12 -2v107h124v-489q0 -118 -65 -178.5
t-192 -60.5zM300 112q62 0 97 41t35 113t-35 113t-97 41q-63 0 -99 -41t-36 -113t36 -113t99 -41zM243 734h139v-123h-139v123z" />
    <glyph glyph-name="uni0122" unicode="&#x122;" horiz-adv-x="740" 
d="M412 -8q-111 0 -191.5 43.5t-123 125t-42.5 196.5q0 113 42.5 194.5t121.5 125t187 43.5q75 0 140 -21t110 -62l-44 -94q-51 39 -99 56.5t-105 17.5q-109 0 -165.5 -66t-56.5 -194q0 -131 58 -197.5t173 -66.5q44 0 86.5 7.5t80.5 21.5l-30 -48v218h-153v93h270v-342
q-33 -17 -75 -28t-89 -17t-95 -6zM477 -69v-62q0 -42 -12 -76t-45 -65l-48 34q22 22 29.5 42.5t7.5 43.5l29 -20h-92v103h131z" />
    <glyph glyph-name="uni0123" unicode="&#x123;" horiz-adv-x="623" 
d="M299 -223q-117 0 -205 48l20 95q46 -24 90.5 -35.5t92.5 -11.5q67 0 101 33t34 100v125h12q-12 -32 -37.5 -58.5t-61.5 -42t-79 -15.5q-66 0 -117 31t-79.5 87.5t-28.5 132.5t28.5 132.5t79.5 88t117 31.5q65 0 113 -32t65 -86l-12 -2v107h124v-489q0 -118 -65 -178.5
t-192 -60.5zM300 112q62 0 97 41t35 113t-35 113t-97 41q-63 0 -99 -41t-36 -113t36 -113t99 -41zM247 599v62q0 43 11.5 77t44.5 64l48 -33q-22 -22 -29 -43t-7 -45l-30 21h93v-103h-131z" />
    <glyph glyph-name="Hcircumflex" unicode="&#x124;" horiz-adv-x="774" 
d="M570 0v712h126v-712h-126zM77 0v712h127v-712h-127zM123 310v103h521v-103h-521zM320 773h-99l128 155h75l128 -155h-99l-66 93z" />
    <glyph glyph-name="hcircumflex" unicode="&#x125;" horiz-adv-x="602" 
d="M67 0v736h125v-333l-15 -1q24 57 71.5 86.5t109.5 29.5q180 0 180 -208v-310h-125v305q0 59 -23 86.5t-71 27.5q-58 0 -92.5 -36.5t-34.5 -96.5v-286h-125zM65 797h-99l128 155h75l128 -155h-99l-66 93z" />
    <glyph glyph-name="Hbar" unicode="&#x126;" horiz-adv-x="822" 
d="M12 518v96h797v-96h-797zM593 0v712h128v-712h-128zM101 0v712h127v-712h-127zM147 310v103h516v-103h-516z" />
    <glyph glyph-name="hbar" unicode="&#x127;" horiz-adv-x="602" 
d="M67 0v736h125v-333l-15 -1q24 57 71.5 86.5t109.5 29.5q180 0 180 -208v-310h-125v305q0 59 -23 86.5t-71 27.5q-58 0 -92.5 -36.5t-34.5 -96.5v-286h-125zM-23 568v89h411v-89h-411z" />
    <glyph glyph-name="Itilde" unicode="&#x128;" horiz-adv-x="284" 
d="M77 0v712h129v-712h-129zM-30 785q0 69 29.5 102.5t72.5 33.5q27 0 51 -14t45.5 -27.5t40.5 -13.5q20 0 32 14.5t13 37.5h57q0 -69 -29.5 -102.5t-72.5 -33.5q-27 0 -51 13.5t-45.5 27.5t-40.5 14q-20 0 -32 -14.5t-13 -37.5h-57z" />
    <glyph glyph-name="itilde" unicode="&#x129;" horiz-adv-x="260" 
d="M67 0v505h125v-505h-125zM-40 608q0 68 29.5 101.5t72.5 33.5q27 0 51 -13.5t45.5 -27.5t40.5 -14q20 0 32 14.5t13 37.5h57q0 -68 -29.5 -101.5t-72.5 -33.5q-27 0 -51 13.5t-45.5 27t-40.5 13.5q-20 0 -32 -14.5t-13 -36.5h-57z" />
    <glyph glyph-name="Imacron" unicode="&#x12a;" horiz-adv-x="284" 
d="M77 0v712h129v-712h-129zM-15 810v82h311v-82h-311z" />
    <glyph glyph-name="imacron" unicode="&#x12b;" horiz-adv-x="260" 
d="M67 0v505h125v-505h-125zM-25 631v82h311v-82h-311z" />
    <glyph glyph-name="Ibreve" unicode="&#x12c;" horiz-adv-x="284" 
d="M77 0v712h129v-712h-129zM141 783q-60 0 -106.5 26t-67.5 83l62 27q21 -34 49.5 -46t62.5 -12t62 12t49 46l62 -27q-21 -57 -67.5 -83t-105.5 -26z" />
    <glyph glyph-name="ibreve" unicode="&#x12d;" horiz-adv-x="260" 
d="M67 0v505h125v-505h-125zM131 596q-39 0 -75 14.5t-64 45t-41 79.5l63 27q24 -46 53.5 -65t63.5 -19t63 19t53 65l63 -27q-13 -49 -40.5 -79.5t-64 -45t-74.5 -14.5z" />
    <glyph glyph-name="Iogonek" unicode="&#x12e;" horiz-adv-x="284" 
d="M148 -197q-54 0 -89.5 30t-35.5 80q0 41 26.5 74.5t79.5 50.5l-15 -38h-37v712h129v-712h-12q-40 0 -63 -20.5t-23 -50.5q0 -28 17 -42.5t45 -14.5q13 0 27 3.5t30 11.5l16 -63q-20 -10 -44 -15.5t-51 -5.5z" />
    <glyph glyph-name="iogonek" unicode="&#x12f;" horiz-adv-x="260" 
d="M137 -202q-54 0 -90 31t-36 82q0 42 27 76.5t82 51.5l-16 -39h-37v505h125v-505h-7q-42 0 -66 -21t-24 -52q0 -28 17.5 -43.5t47.5 -15.5q12 0 27 3.5t30 12.5l18 -64q-21 -10 -46 -16t-52 -6zM61 738h139v-124h-139v124z" />
    <glyph glyph-name="Idotaccent" unicode="&#x130;" horiz-adv-x="284" 
d="M77 0v712h129v-712h-129zM71 913h139v-124h-139v124z" />
    <glyph glyph-name="dotlessi" unicode="&#x131;" horiz-adv-x="260" 
d="M67 0v505h125v-505h-125z" />
    <glyph glyph-name="Jcircumflex" unicode="&#x134;" horiz-adv-x="362" 
d="M-2 -178v105q63 -9 97 -4.5t47 29.5t13 77v683h129v-682q0 -88 -27 -140t-89.5 -68.5t-169.5 0.5zM152 773h-99l128 155h75l128 -155h-99l-66 93z" />
    <glyph glyph-name="jcircumflex" unicode="&#x135;" horiz-adv-x="260" 
d="M-61 -111q15 -4 26 -6t23 -2q22 0 40 8.5t28.5 27.5t10.5 53v535h125v-541q0 -90 -45.5 -138t-129.5 -48q-20 0 -40 2.5t-38 8.5v100zM66 570h-102l126 206h79l126 -206h-102l-63 127z" />
    <glyph glyph-name="uni0136" unicode="&#x136;" horiz-adv-x="666" 
d="M537 0l-361 363l348 349h156l-386 -382l9 71l392 -401h-158zM77 0v712h129v-712h-129zM400 -69v-62q0 -42 -12 -76t-45 -65l-48 34q22 22 29.5 42.5t7.5 43.5l29 -20h-92v103h131z" />
    <glyph glyph-name="uni0137" unicode="&#x137;" horiz-adv-x="552" 
d="M413 0l-243 257l230 247h152l-261 -276l6 63l272 -291h-156zM67 0v736h125v-736h-125zM340 -69v-62q0 -42 -12 -76t-45 -65l-48 34q22 22 29.5 42.5t7.5 43.5l29 -20h-92v103h131z" />
    <glyph glyph-name="kgreenlandic" unicode="&#x138;" horiz-adv-x="552" 
d="M413 0l-243 257l230 247h152l-261 -276l6 63l272 -291h-156zM67 0v505h125v-505h-125z" />
    <glyph glyph-name="Lacute" unicode="&#x139;" horiz-adv-x="560" 
d="M77 0v712h129v-606h332v-106h-461zM180 773h-79l102 155h122z" />
    <glyph glyph-name="lacute" unicode="&#x13a;" horiz-adv-x="260" 
d="M67 0v736h125v-736h-125zM170 797h-79l102 155h122z" />
    <glyph glyph-name="uni013B" unicode="&#x13b;" horiz-adv-x="560" 
d="M77 0v712h129v-606h332v-106h-461zM379 -69v-62q0 -42 -12 -76t-45 -65l-48 34q22 22 29.5 42.5t7.5 43.5l29 -20h-92v103h131z" />
    <glyph glyph-name="uni013C" unicode="&#x13c;" horiz-adv-x="260" 
d="M67 0v736h125v-736h-125zM196 -69v-62q0 -42 -12 -76t-45 -65l-48 34q22 22 29.5 42.5t7.5 43.5l29 -20h-92v103h131z" />
    <glyph glyph-name="Lcaron" unicode="&#x13d;" horiz-adv-x="560" 
d="M77 0v712h129v-606h332v-106h-461zM354 518h-60v194h86z" />
    <glyph glyph-name="lcaron" unicode="&#x13e;" horiz-adv-x="260" 
d="M272 538h-48v198h74zM67 0v736h125v-736h-125z" />
    <glyph glyph-name="Ldot" unicode="&#x13f;" horiz-adv-x="560" 
d="M77 0v712h129v-606h332v-106h-461zM309 419h139v-125h-139v125z" />
    <glyph glyph-name="ldot" unicode="&#x140;" horiz-adv-x="337" 
d="M67 0v736h125v-736h-125zM225 421h139v-125h-139v125z" />
    <glyph glyph-name="Lslash" unicode="&#x141;" horiz-adv-x="585" 
d="M9 214v112l408 235v-113zM101 0v712h129v-606h333v-106h-462z" />
    <glyph glyph-name="lslash" unicode="&#x142;" horiz-adv-x="333" 
d="M35 235l-48 84l310 181l49 -87zM104 0v736h125v-736h-125z" />
    <glyph glyph-name="Nacute" unicode="&#x143;" horiz-adv-x="755" 
d="M77 0v712h96l410 -533l-27 -14v547h121v-712h-97l-408 531l26 16v-547h-121zM416 773h-79l102 155h122z" />
    <glyph glyph-name="nacute" unicode="&#x144;" horiz-adv-x="602" 
d="M67 0v362q0 36 -1.5 72t-6.5 71h118l11 -100l-11 -3q24 57 71.5 86.5t109.5 29.5q180 0 180 -208v-310h-125v305q0 59 -23 86.5t-71 27.5q-58 0 -92.5 -36.5t-34.5 -96.5v-286h-125zM342 570h-79l99 206h128z" />
    <glyph glyph-name="uni0145" unicode="&#x145;" horiz-adv-x="755" 
d="M77 0v712h96l410 -533l-27 -14v547h121v-712h-97l-408 531l26 16v-547h-121zM443 -69v-62q0 -42 -12 -76t-45 -65l-48 34q22 22 29.5 42.5t7.5 43.5l29 -20h-92v103h131z" />
    <glyph glyph-name="uni0146" unicode="&#x146;" horiz-adv-x="602" 
d="M67 0v362q0 36 -1.5 72t-6.5 71h118l11 -100l-11 -3q24 57 71.5 86.5t109.5 29.5q180 0 180 -208v-310h-125v305q0 59 -23 86.5t-71 27.5q-58 0 -92.5 -36.5t-34.5 -96.5v-286h-125zM368 -69v-62q0 -42 -12 -76t-45 -65l-48 34q22 22 29.5 42.5t7.5 43.5l29 -20h-92v103
h131z" />
    <glyph glyph-name="Ncaron" unicode="&#x147;" horiz-adv-x="755" 
d="M77 0v712h96l410 -533l-27 -14v547h121v-712h-97l-408 531l26 16v-547h-121zM443 928h99l-128 -155h-75l-128 155h99l67 -93z" />
    <glyph glyph-name="ncaron" unicode="&#x148;" horiz-adv-x="602" 
d="M67 0v362q0 36 -1.5 72t-6.5 71h118l11 -100l-11 -3q24 57 71.5 86.5t109.5 29.5q180 0 180 -208v-310h-125v305q0 59 -23 86.5t-71 27.5q-58 0 -92.5 -36.5t-34.5 -96.5v-286h-125zM366 776h102l-126 -206h-79l-126 206h102l64 -128z" />
    <glyph glyph-name="napostrophe" unicode="&#x149;" horiz-adv-x="602" 
d="M214 765v-62q0 -43 -11.5 -77t-44.5 -65l-48 35q22 21 29 42t7 44l30 -20h-93v103h131zM67 0v362q0 36 -1.5 72t-6.5 71h118l11 -100l-11 -3q24 57 71.5 86.5t109.5 29.5q180 0 180 -208v-310h-125v305q0 59 -23 86.5t-71 27.5q-58 0 -92.5 -36.5t-34.5 -96.5v-286h-125z
" />
    <glyph glyph-name="Eng" unicode="&#x14a;" horiz-adv-x="755" 
d="M556 712h121v-694q0 -93 -49 -144.5t-149 -57.5l-83 -5l-8 99l70 4q47 3 72 28.5t25 70.5v62l22 -70l-405 526l26 16v-547h-121v712h96l410 -533l-27 -14v547z" />
    <glyph glyph-name="eng" unicode="&#x14b;" horiz-adv-x="602" 
d="M358 518q180 0 180 -208v-325q0 -71 -20.5 -117t-59.5 -68t-95 -22q-21 0 -40.5 2t-38.5 7v102q15 -4 26.5 -6t22.5 -2q22 0 40.5 9t29 33t10.5 68v314q0 59 -23 86.5t-71 27.5q-58 0 -92.5 -36.5t-34.5 -96.5v-286h-125v362q0 35 -1.5 71.5t-6.5 71.5h118l11 -100
l-11 -3q24 57 71.5 86.5t109.5 29.5z" />
    <glyph glyph-name="Omacron" unicode="&#x14c;" horiz-adv-x="787" 
d="M393 -8q-104 0 -180 44t-117 126t-41 194q0 113 41 194.5t117 125.5t180 44q105 0 181 -44t117 -125.5t41 -193.5q0 -113 -41.5 -195t-117 -126t-180.5 -44zM393 94q98 0 154 67.5t56 195.5t-56 194.5t-154 66.5q-97 0 -153 -66.5t-56 -194.5t56 -195.5t153 -67.5z
M236 810v82h311v-82h-311z" />
    <glyph glyph-name="omacron" unicode="&#x14d;" horiz-adv-x="592" 
d="M297 -7q-79 0 -136.5 32t-88.5 90.5t-31 139.5q0 80 31 139.5t88.5 91.5t136.5 32q77 0 134.5 -32t89 -91.5t31.5 -139.5q0 -81 -31.5 -139.5t-89 -90.5t-134.5 -32zM297 89q62 0 95.5 41.5t33.5 124.5q0 82 -33.5 123.5t-95.5 41.5q-63 0 -97.5 -41.5t-34.5 -123.5
q0 -83 34 -124.5t98 -41.5zM141 631v82h311v-82h-311z" />
    <glyph glyph-name="Obreve" unicode="&#x14e;" horiz-adv-x="787" 
d="M393 -8q-104 0 -180 44t-117 126t-41 194q0 113 41 194.5t117 125.5t180 44q105 0 181 -44t117 -125.5t41 -193.5q0 -113 -41.5 -195t-117 -126t-180.5 -44zM393 94q98 0 154 67.5t56 195.5t-56 194.5t-154 66.5q-97 0 -153 -66.5t-56 -194.5t56 -195.5t153 -67.5z
M392 783q-60 0 -106.5 26t-67.5 83l62 27q21 -34 49.5 -46t62.5 -12t62 12t49 46l62 -27q-21 -57 -67.5 -83t-105.5 -26z" />
    <glyph glyph-name="obreve" unicode="&#x14f;" horiz-adv-x="592" 
d="M297 -7q-79 0 -136.5 32t-88.5 90.5t-31 139.5q0 80 31 139.5t88.5 91.5t136.5 32q77 0 134.5 -32t89 -91.5t31.5 -139.5q0 -81 -31.5 -139.5t-89 -90.5t-134.5 -32zM297 89q62 0 95.5 41.5t33.5 124.5q0 82 -33.5 123.5t-95.5 41.5q-63 0 -97.5 -41.5t-34.5 -123.5
q0 -83 34 -124.5t98 -41.5zM297 596q-39 0 -75 14.5t-64 45t-41 79.5l63 27q24 -46 53.5 -65t63.5 -19t63 19t53 65l63 -27q-13 -49 -40.5 -79.5t-64 -45t-74.5 -14.5z" />
    <glyph glyph-name="Ohungarumlaut" unicode="&#x150;" horiz-adv-x="787" 
d="M393 -8q-104 0 -180 44t-117 126t-41 194q0 113 41 194.5t117 125.5t180 44q105 0 181 -44t117 -125.5t41 -193.5q0 -113 -41.5 -195t-117 -126t-180.5 -44zM393 94q98 0 154 67.5t56 195.5t-56 194.5t-154 66.5q-97 0 -153 -66.5t-56 -194.5t56 -195.5t153 -67.5z
M426 773l74 155h89l-99 -155h-64zM293 773l73 155h91l-100 -155h-64z" />
    <glyph glyph-name="ohungarumlaut" unicode="&#x151;" horiz-adv-x="592" 
d="M297 -7q-79 0 -136.5 32t-88.5 90.5t-31 139.5q0 80 31 139.5t88.5 91.5t136.5 32q77 0 134.5 -32t89 -91.5t31.5 -139.5q0 -81 -31.5 -139.5t-89 -90.5t-134.5 -32zM297 89q62 0 95.5 41.5t33.5 124.5q0 82 -33.5 123.5t-95.5 41.5q-63 0 -97.5 -41.5t-34.5 -123.5
q0 -83 34 -124.5t98 -41.5zM258 570h-56l39 206h96zM391 570h-56l38 206h97z" />
    <glyph glyph-name="OE" unicode="&#x152;" horiz-adv-x="1055" 
d="M544 0v74l-6 30v514l6 18v76h469v-101h-350v-198h330v-102h-330v-210h350v-101h-469zM566 546q-26 35 -70 53.5t-103 18.5q-100 0 -154.5 -68.5t-54.5 -192.5q0 -126 55 -194.5t154 -68.5q120 0 173 73v-105q-62 -70 -186 -70q-97 0 -170.5 45.5t-114 127.5t-40.5 191
q0 110 40.5 191.5t114 127t170.5 45.5q124 0 186 -67v-107z" />
    <glyph glyph-name="oe" unicode="&#x153;" horiz-adv-x="931" 
d="M294 -7q-77 0 -134 32t-88 91t-31 139t31 139t88 91.5t134 32.5q73 0 126.5 -32t82.5 -91t29 -140t-29 -140t-82.5 -90.5t-126.5 -31.5zM295 89q62 0 95.5 41.5t33.5 124.5q0 82 -34 123.5t-95 41.5t-95.5 -41.5t-34.5 -123.5q0 -83 34 -124.5t96 -41.5zM690 -7
q-114 0 -178.5 68t-65.5 192q-2 80 27 139.5t81.5 92.5t123.5 33q64 0 112.5 -31t75 -88t26.5 -134v-35h-357l1 68h282l-33 -19q1 72 -27.5 110.5t-82.5 38.5q-60 0 -93 -42.5t-33 -120.5q0 -90 35 -133t107 -43q42 0 82 13.5t74 39.5l37 -86q-36 -29 -88.5 -46t-105.5 -17z
" />
    <glyph glyph-name="Racute" unicode="&#x154;" horiz-adv-x="702" 
d="M77 0v712h305q121 0 184 -53t63 -152q0 -94 -65 -149.5t-181 -55.5l80 16q37 0 66 -22t46 -68l88 -228h-136l-90 237q-14 35 -39.5 47t-63.5 12h-130v-296h-127zM203 396h161q74 0 108 27t34 81q0 55 -34 81t-108 26h-161v-215zM390 773h-79l102 155h122z" />
    <glyph glyph-name="racute" unicode="&#x155;" horiz-adv-x="392" 
d="M67 0v362q0 35 -1.5 71.5t-6.5 71.5h118l14 -130l-14 7q13 67 59 101t104 34q15 0 28 -2t23 -6l-2 -114q-31 13 -66 13q-45 0 -73.5 -18t-43 -48.5t-14.5 -68.5v-273h-125zM272 570h-79l99 206h128z" />
    <glyph glyph-name="uni0156" unicode="&#x156;" horiz-adv-x="702" 
d="M77 0v712h305q121 0 184 -53t63 -152q0 -94 -65 -149.5t-181 -55.5l80 16q37 0 66 -22t46 -68l88 -228h-136l-90 237q-14 35 -39.5 47t-63.5 12h-130v-296h-127zM203 396h161q74 0 108 27t34 81q0 55 -34 81t-108 26h-161v-215zM417 -69v-62q0 -42 -12 -76t-45 -65
l-48 34q22 22 29.5 42.5t7.5 43.5l29 -20h-92v103h131z" />
    <glyph glyph-name="uni0157" unicode="&#x157;" horiz-adv-x="392" 
d="M67 0v362q0 35 -1.5 71.5t-6.5 71.5h118l14 -130l-14 7q13 67 59 101t104 34q15 0 28 -2t23 -6l-2 -114q-31 13 -66 13q-45 0 -73.5 -18t-43 -48.5t-14.5 -68.5v-273h-125zM196 -69v-62q0 -42 -12 -76t-45 -65l-48 34q22 22 29.5 42.5t7.5 43.5l29 -20h-92v103h131z" />
    <glyph glyph-name="Rcaron" unicode="&#x158;" horiz-adv-x="702" 
d="M77 0v712h305q121 0 184 -53t63 -152q0 -94 -65 -149.5t-181 -55.5l80 16q37 0 66 -22t46 -68l88 -228h-136l-90 237q-14 35 -39.5 47t-63.5 12h-130v-296h-127zM203 396h161q74 0 108 27t34 81q0 55 -34 81t-108 26h-161v-215zM417 928h99l-128 -155h-75l-128 155h99
l67 -93z" />
    <glyph glyph-name="rcaron" unicode="&#x159;" horiz-adv-x="392" 
d="M67 0v362q0 35 -1.5 71.5t-6.5 71.5h118l14 -130l-14 7q13 67 59 101t104 34q15 0 28 -2t23 -6l-2 -114q-31 13 -66 13q-45 0 -73.5 -18t-43 -48.5t-14.5 -68.5v-273h-125zM296 776h102l-126 -206h-79l-126 206h102l64 -128z" />
    <glyph glyph-name="Sacute" unicode="&#x15a;" horiz-adv-x="645" 
d="M318 -8q-55 0 -105 9.5t-93.5 28.5t-76.5 46l43 94q54 -40 110 -58t123 -18q74 0 114.5 26t40.5 73q0 28 -18 46.5t-54 31.5t-89 25q-63 12 -111 29.5t-80 41.5t-48.5 57.5t-16.5 79.5q0 63 34 112t95.5 76.5t144.5 27.5q50 0 97.5 -10t87.5 -28.5t69 -45.5l-44 -94
q-48 39 -100 57.5t-109 18.5q-69 0 -109 -28t-40 -78q0 -29 16.5 -48t51 -32t88.5 -26q62 -13 110.5 -30t82.5 -40.5t51.5 -56t17.5 -77.5q0 -64 -34 -111.5t-97.5 -73t-151.5 -25.5zM363 773h-79l102 155h122z" />
    <glyph glyph-name="sacute" unicode="&#x15b;" horiz-adv-x="501" 
d="M253 -7q-138 0 -218 63l35 88q40 -30 87 -45t98 -15q46 0 70 15t24 42q0 23 -17 36.5t-58 23.5l-84 19q-69 15 -103.5 50.5t-34.5 90.5q0 46 26 81.5t73 55.5t109 20q54 0 104 -16.5t87 -47.5l-36 -86q-38 29 -77.5 43t-78.5 14q-43 0 -67 -16t-24 -44q0 -22 14.5 -35
t50.5 -21l85 -21q75 -16 109.5 -51.5t34.5 -93.5q0 -69 -56 -109.5t-153 -40.5zM298 570h-79l99 206h128z" />
    <glyph glyph-name="Scircumflex" unicode="&#x15c;" horiz-adv-x="645" 
d="M318 -8q-55 0 -105 9.5t-93.5 28.5t-76.5 46l43 94q54 -40 110 -58t123 -18q74 0 114.5 26t40.5 73q0 28 -18 46.5t-54 31.5t-89 25q-63 12 -111 29.5t-80 41.5t-48.5 57.5t-16.5 79.5q0 63 34 112t95.5 76.5t144.5 27.5q50 0 97.5 -10t87.5 -28.5t69 -45.5l-44 -94
q-48 39 -100 57.5t-109 18.5q-69 0 -109 -28t-40 -78q0 -29 16.5 -48t51 -32t88.5 -26q62 -13 110.5 -30t82.5 -40.5t51.5 -56t17.5 -77.5q0 -64 -34 -111.5t-97.5 -73t-151.5 -25.5zM257 773h-99l128 155h75l128 -155h-99l-66 93z" />
    <glyph glyph-name="scircumflex" unicode="&#x15d;" horiz-adv-x="501" 
d="M253 -7q-138 0 -218 63l35 88q40 -30 87 -45t98 -15q46 0 70 15t24 42q0 23 -17 36.5t-58 23.5l-84 19q-69 15 -103.5 50.5t-34.5 90.5q0 46 26 81.5t73 55.5t109 20q54 0 104 -16.5t87 -47.5l-36 -86q-38 29 -77.5 43t-78.5 14q-43 0 -67 -16t-24 -44q0 -22 14.5 -35
t50.5 -21l85 -21q75 -16 109.5 -51.5t34.5 -93.5q0 -69 -56 -109.5t-153 -40.5zM195 570h-102l126 206h79l126 -206h-102l-63 127z" />
    <glyph glyph-name="Scedilla" unicode="&#x15e;" horiz-adv-x="645" 
d="M318 -8q-55 0 -105 9.5t-93.5 28.5t-76.5 46l43 94q54 -40 110 -58t123 -18q74 0 114.5 26t40.5 73q0 28 -18 46.5t-54 31.5t-89 25q-63 12 -111 29.5t-80 41.5t-48.5 57.5t-16.5 79.5q0 63 34 112t95.5 76.5t144.5 27.5q50 0 97.5 -10t87.5 -28.5t69 -45.5l-44 -94
q-48 39 -100 57.5t-109 18.5q-69 0 -109 -28t-40 -78q0 -29 16.5 -48t51 -32t88.5 -26q62 -13 110.5 -30t82.5 -40.5t51.5 -56t17.5 -77.5q0 -64 -34 -111.5t-97.5 -73t-151.5 -25.5zM312 -197q-20 0 -46 4.5t-46 13.5l12 53q23 -7 42 -10.5t36 -3.5q23 0 36.5 7.5
t13.5 21.5q0 23 -34 23q-11 0 -21 -2t-19 -5l-20 18l12 97h73l-10 -75l-33 5q12 5 26 7t26 2q35 0 58 -18t23 -52q0 -37 -33 -61.5t-96 -24.5z" />
    <glyph glyph-name="scedilla" unicode="&#x15f;" horiz-adv-x="501" 
d="M253 -7q-138 0 -218 63l35 88q40 -30 87 -45t98 -15q46 0 70 15t24 42q0 23 -17 36.5t-58 23.5l-84 19q-69 15 -103.5 50.5t-34.5 90.5q0 46 26 81.5t73 55.5t109 20q54 0 104 -16.5t87 -47.5l-36 -86q-38 29 -77.5 43t-78.5 14q-43 0 -67 -16t-24 -44q0 -22 14.5 -35
t50.5 -21l85 -21q75 -16 109.5 -51.5t34.5 -93.5q0 -69 -56 -109.5t-153 -40.5zM240 -197q-20 0 -46 4.5t-46 13.5l12 53q23 -7 42 -10.5t36 -3.5q23 0 36.5 7.5t13.5 21.5q0 23 -34 23q-11 0 -21 -2t-19 -5l-20 18l12 97h73l-10 -75l-33 5q12 5 26 7t26 2q35 0 58 -18
t23 -52q0 -37 -33 -61.5t-96 -24.5z" />
    <glyph glyph-name="Scaron" unicode="&#x160;" horiz-adv-x="645" 
d="M318 -8q-55 0 -105 9.5t-93.5 28.5t-76.5 46l43 94q54 -40 110 -58t123 -18q74 0 114.5 26t40.5 73q0 28 -18 46.5t-54 31.5t-89 25q-63 12 -111 29.5t-80 41.5t-48.5 57.5t-16.5 79.5q0 63 34 112t95.5 76.5t144.5 27.5q50 0 97.5 -10t87.5 -28.5t69 -45.5l-44 -94
q-48 39 -100 57.5t-109 18.5q-69 0 -109 -28t-40 -78q0 -29 16.5 -48t51 -32t88.5 -26q62 -13 110.5 -30t82.5 -40.5t51.5 -56t17.5 -77.5q0 -64 -34 -111.5t-97.5 -73t-151.5 -25.5zM390 928h99l-128 -155h-75l-128 155h99l67 -93z" />
    <glyph glyph-name="scaron" unicode="&#x161;" horiz-adv-x="501" 
d="M253 -7q-138 0 -218 63l35 88q40 -30 87 -45t98 -15q46 0 70 15t24 42q0 23 -17 36.5t-58 23.5l-84 19q-69 15 -103.5 50.5t-34.5 90.5q0 46 26 81.5t73 55.5t109 20q54 0 104 -16.5t87 -47.5l-36 -86q-38 29 -77.5 43t-78.5 14q-43 0 -67 -16t-24 -44q0 -22 14.5 -35
t50.5 -21l85 -21q75 -16 109.5 -51.5t34.5 -93.5q0 -69 -56 -109.5t-153 -40.5zM322 776h102l-126 -206h-79l-126 206h102l64 -128z" />
    <glyph glyph-name="uni0162" unicode="&#x162;" horiz-adv-x="618" 
d="M244 0v606h-232v106h594v-106h-232v-606h-130zM300 -197q-20 0 -46 4.5t-46 13.5l12 53q23 -7 42 -10.5t36 -3.5q23 0 36.5 7.5t13.5 21.5q0 23 -34 23q-11 0 -21 -2t-19 -5l-20 18l12 97h73l-10 -75l-33 5q12 5 26 7t26 2q35 0 58 -18t23 -52q0 -37 -33 -61.5t-96 -24.5
z" />
    <glyph glyph-name="uni0163" unicode="&#x163;" horiz-adv-x="379" 
d="M5 411v94h356v-94h-356zM361 104v-99q-20 -7 -39.5 -9.5t-41.5 -2.5q-85 0 -131.5 48t-46.5 138v449l125 42v-485q0 -34 11 -53.5t29.5 -27.5t41.5 -8q13 0 25 2t27 6zM231 -197q-20 0 -46 4.5t-46 13.5l12 53q23 -7 42 -10.5t36 -3.5q23 0 36.5 7.5t13.5 21.5
q0 23 -34 23q-11 0 -21 -2t-19 -5l-20 18l12 97h73l-10 -75l-33 5q12 5 26 7t26 2q35 0 58 -18t23 -52q0 -37 -33 -61.5t-96 -24.5z" />
    <glyph glyph-name="Tcaron" unicode="&#x164;" horiz-adv-x="618" 
d="M244 0v606h-232v106h594v-106h-232v-606h-130zM375 928h99l-128 -155h-75l-128 155h99l67 -93z" />
    <glyph glyph-name="tcaron" unicode="&#x165;" horiz-adv-x="379" 
d="M5 411v94h356v-94h-356zM361 104v-99q-20 -7 -39.5 -9.5t-41.5 -2.5q-85 0 -131.5 48t-46.5 138v449l125 42v-485q0 -34 11 -53.5t29.5 -27.5t41.5 -8q13 0 25 2t27 6zM322.105 539.213h-62.8594v174.604h90.0986z" />
    <glyph glyph-name="Tbar" unicode="&#x166;" horiz-adv-x="618" 
d="M105 311v98h408v-98h-408zM244 0v606h-232v106h594v-106h-232v-606h-130z" />
    <glyph glyph-name="tbar" unicode="&#x167;" horiz-adv-x="389" 
d="M31 244v89h315v-89h-315zM10 411v94h357v-94h-357zM366 104v-99q-19 -7 -39 -9.5t-42 -2.5q-85 0 -131.5 48t-46.5 138v449l126 42v-485q0 -34 11 -53.5t29 -27.5t41 -8q13 0 25 2t27 6z" />
    <glyph glyph-name="Utilde" unicode="&#x168;" horiz-adv-x="740" 
d="M371 -8q-147 0 -222.5 75t-75.5 221v424h126v-431q0 -92 43.5 -139.5t128.5 -47.5q82 0 125.5 48t43.5 139v431h128v-424q0 -145 -76.5 -220.5t-220.5 -75.5zM200 785q0 69 29.5 102.5t72.5 33.5q27 0 51 -14t45.5 -27.5t40.5 -13.5q20 0 32 14.5t13 37.5h57
q0 -69 -29.5 -102.5t-72.5 -33.5q-27 0 -51 13.5t-45.5 27.5t-40.5 14q-20 0 -32 -14.5t-13 -37.5h-57z" />
    <glyph glyph-name="utilde" unicode="&#x169;" horiz-adv-x="595" 
d="M250 -7q-93 0 -139.5 51.5t-46.5 155.5v305h125v-306q0 -55 23 -81t69 -26q55 0 88 36t33 96v281h126v-505h-122v104l13 1q-22 -55 -66 -83.5t-103 -28.5zM127 608q0 68 29.5 101.5t72.5 33.5q27 0 51 -13.5t45.5 -27.5t40.5 -14q20 0 32 14.5t13 37.5h57
q0 -68 -29.5 -101.5t-72.5 -33.5q-27 0 -51 13.5t-45.5 27t-40.5 13.5q-20 0 -32 -14.5t-13 -36.5h-57z" />
    <glyph glyph-name="Umacron" unicode="&#x16a;" horiz-adv-x="740" 
d="M371 -8q-147 0 -222.5 75t-75.5 221v424h126v-431q0 -92 43.5 -139.5t128.5 -47.5q82 0 125.5 48t43.5 139v431h128v-424q0 -145 -76.5 -220.5t-220.5 -75.5zM215 810v82h311v-82h-311z" />
    <glyph glyph-name="umacron" unicode="&#x16b;" horiz-adv-x="595" 
d="M250 -7q-93 0 -139.5 51.5t-46.5 155.5v305h125v-306q0 -55 23 -81t69 -26q55 0 88 36t33 96v281h126v-505h-122v104l13 1q-22 -55 -66 -83.5t-103 -28.5zM142 631v82h311v-82h-311z" />
    <glyph glyph-name="Ubreve" unicode="&#x16c;" horiz-adv-x="740" 
d="M371 -8q-147 0 -222.5 75t-75.5 221v424h126v-431q0 -92 43.5 -139.5t128.5 -47.5q82 0 125.5 48t43.5 139v431h128v-424q0 -145 -76.5 -220.5t-220.5 -75.5zM371 783q-60 0 -106.5 26t-67.5 83l62 27q21 -34 49.5 -46t62.5 -12t62 12t49 46l62 -27q-21 -57 -67.5 -83
t-105.5 -26z" />
    <glyph glyph-name="ubreve" unicode="&#x16d;" horiz-adv-x="595" 
d="M250 -7q-93 0 -139.5 51.5t-46.5 155.5v305h125v-306q0 -55 23 -81t69 -26q55 0 88 36t33 96v281h126v-505h-122v104l13 1q-22 -55 -66 -83.5t-103 -28.5zM298 596q-39 0 -75 14.5t-64 45t-41 79.5l63 27q24 -46 53.5 -65t63.5 -19t63 19t53 65l63 -27
q-13 -49 -40.5 -79.5t-64 -45t-74.5 -14.5z" />
    <glyph glyph-name="Uring" unicode="&#x16e;" horiz-adv-x="740" 
d="M371 -8q-147 0 -222.5 75t-75.5 221v424h126v-431q0 -92 43.5 -139.5t128.5 -47.5q82 0 125.5 48t43.5 139v431h128v-424q0 -145 -76.5 -220.5t-220.5 -75.5zM371 768q-45 0 -76.5 30.5t-31.5 74.5t31.5 75t76.5 31q44 0 75.5 -31t31.5 -75t-31.5 -74.5t-75.5 -30.5z
M371 825q20 0 32.5 13.5t12.5 34.5q0 20 -12.5 33.5t-32.5 13.5q-21 0 -33.5 -13.5t-12.5 -33.5t12.5 -34t33.5 -14z" />
    <glyph glyph-name="uring" unicode="&#x16f;" horiz-adv-x="595" 
d="M250 -7q-93 0 -139.5 51.5t-46.5 155.5v305h125v-306q0 -55 23 -81t69 -26q55 0 88 36t33 96v281h126v-505h-122v104l13 1q-22 -55 -66 -83.5t-103 -28.5zM298 568q-45 0 -76.5 30t-31.5 76q0 44 31.5 74.5t76.5 30.5q29 0 53.5 -14.5t39 -38t14.5 -52.5q0 -46 -31.5 -76
t-75.5 -30zM298 625q20 0 32.5 14t12.5 35q0 19 -12.5 32.5t-32.5 13.5q-21 0 -33.5 -13.5t-12.5 -33.5t12.5 -34t33.5 -14z" />
    <glyph glyph-name="Uhungarumlaut" unicode="&#x170;" horiz-adv-x="740" 
d="M371 -8q-147 0 -222.5 75t-75.5 221v424h126v-431q0 -92 43.5 -139.5t128.5 -47.5q82 0 125.5 48t43.5 139v431h128v-424q0 -145 -76.5 -220.5t-220.5 -75.5zM405 773l74 155h89l-99 -155h-64zM272 773l73 155h91l-100 -155h-64z" />
    <glyph glyph-name="uhungarumlaut" unicode="&#x171;" horiz-adv-x="595" 
d="M250 -7q-93 0 -139.5 51.5t-46.5 155.5v305h125v-306q0 -55 23 -81t69 -26q55 0 88 36t33 96v281h126v-505h-122v104l13 1q-22 -55 -66 -83.5t-103 -28.5zM259 570h-56l39 206h96zM392 570h-56l38 206h97z" />
    <glyph glyph-name="Uogonek" unicode="&#x172;" horiz-adv-x="740" 
d="M540 712h128v-424q0 -114 -47 -185.5t-139 -96.5q-34 -11 -51.5 -30.5t-17.5 -46.5t16.5 -42t45.5 -15q14 0 28 3.5t29 11.5l17 -63q-43 -21 -95 -21q-55 0 -90 30.5t-35 77.5q0 32 16 58t47 42l10 -19h-31q-146 0 -222 75t-76 221v424h126v-431q0 -92 43.5 -139.5
t128.5 -47.5q82 0 125.5 48t43.5 139v431z" />
    <glyph glyph-name="uogonek" unicode="&#x173;" horiz-adv-x="595" 
d="M528 0h-9q-38 0 -63 -20.5t-25 -52.5q0 -28 16.5 -43.5t47.5 -15.5q28 0 57 16l18 -64q-21 -10 -45.5 -16t-51.5 -6q-56 0 -91.5 32t-35.5 81q0 45 28.5 78.5t80.5 49.5l-16 -39h-33v104l13 1q-22 -55 -66 -83.5t-103 -28.5q-93 0 -139.5 51.5t-46.5 155.5v305h125v-306
q0 -55 23 -81t69 -26q55 0 88 36t33 96v281h126v-505z" />
    <glyph glyph-name="Wcircumflex" unicode="&#x174;" horiz-adv-x="1121" 
d="M276 0l-252 712h131l195 -585h-36l204 585l92 -1l198 -584h-34l199 585h123l-251 -712h-105l-191 546h24l-193 -546h-104zM493 773h-99l128 155h75l128 -155h-99l-66 93z" />
    <glyph glyph-name="wcircumflex" unicode="&#x175;" horiz-adv-x="883" 
d="M208 0l-198 505h129l142 -391h-25l143 391h91l142 -391h-23l142 391h121l-198 -505h-109l-154 407h57l-151 -407h-109zM377 570h-102l126 206h79l126 -206h-102l-63 127z" />
    <glyph glyph-name="Ycircumflex" unicode="&#x176;" horiz-adv-x="629" 
d="M250 0v320l27 -78l-316 470h147l225 -350h-37l225 350h147l-315 -470l26 78v-320h-129zM247 773h-99l128 155h75l128 -155h-99l-66 93z" />
    <glyph glyph-name="ycircumflex" unicode="&#x177;" horiz-adv-x="543" 
d="M56 -227l-28 96q47 10 78 23.5t51.5 34.5t34.5 54l36 82l32 46l162 396h124l-234 -539q-29 -66 -67 -105.5t-85.5 -59.5t-103.5 -28zM231 -33l-233 538h131l159 -396zM208 570h-102l126 206h79l126 -206h-102l-63 127z" />
    <glyph glyph-name="Ydieresis" unicode="&#x178;" horiz-adv-x="629" 
d="M250 0v320l27 -78l-316 470h147l225 -350h-37l225 350h147l-315 -470l26 78v-320h-129zM346 908h121v-114h-121v114zM160 908h121v-114h-121v114z" />
    <glyph glyph-name="Zacute" unicode="&#x179;" horiz-adv-x="608" 
d="M49 0v94l397 558l-1 -43h-396v103h512v-93l-399 -559l2 43h408v-103h-523zM343 773h-79l102 155h122z" />
    <glyph glyph-name="zacute" unicode="&#x17a;" horiz-adv-x="525" 
d="M49 0v87l307 356l10 -32h-311v94h422v-85l-309 -359l-7 34h327v-95h-439zM309 570h-79l99 206h128z" />
    <glyph glyph-name="Zdotaccent" unicode="&#x17b;" horiz-adv-x="608" 
d="M49 0v94l397 558l-1 -43h-396v103h512v-93l-399 -559l2 43h408v-103h-523zM234 913h139v-124h-139v124z" />
    <glyph glyph-name="zdotaccent" unicode="&#x17c;" horiz-adv-x="525" 
d="M49 0v87l307 356l10 -32h-311v94h422v-85l-309 -359l-7 34h327v-95h-439zM200 734h139v-123h-139v123z" />
    <glyph glyph-name="Zcaron" unicode="&#x17d;" horiz-adv-x="608" 
d="M49 0v94l397 558l-1 -43h-396v103h512v-93l-399 -559l2 43h408v-103h-523zM370 928h99l-128 -155h-75l-128 155h99l67 -93z" />
    <glyph glyph-name="zcaron" unicode="&#x17e;" horiz-adv-x="525" 
d="M49 0v87l307 356l10 -32h-311v94h422v-85l-309 -359l-7 34h327v-95h-439zM333 776h102l-126 -206h-79l-126 206h102l64 -128z" />
    <glyph glyph-name="uni018F" unicode="&#x18f;" horiz-adv-x="766" 
d="M390 -8q-104 0 -179.5 43t-115.5 124.5t-40 198.5v53h578v-101h-482l33 47q-2 -128 51.5 -195.5t151.5 -67.5q94 0 144.5 67.5t50.5 195.5q0 126 -58.5 193t-167.5 67q-60 0 -113.5 -18.5t-100.5 -56.5l-44 94q32 26 74 45t90 29t97 10q108 0 186.5 -44t121.5 -125.5
t43 -193.5q0 -109 -39.5 -191.5t-111.5 -128t-169 -45.5z" />
    <glyph glyph-name="florin" unicode="&#x192;" horiz-adv-x="600" 
d="M29 -187v100h64q35 0 57 21t32 66l113 534q14 67 45.5 107t74 57.5t89.5 17.5h66v-99h-64q-34 0 -56.5 -21t-30.5 -66l-114 -534q-14 -67 -45.5 -107.5t-74 -58t-90.5 -17.5h-66zM156 420v78h371v-78h-371z" />
    <glyph glyph-name="Ohorn" unicode="&#x1a0;" horiz-adv-x="787" 
d="M393 -8q-104 0 -180 44t-117 126t-41 194q0 113 41 194.5t117.5 125.5t182.5 44q36 0 67 -4t63 -4q53 1 74.5 24.5t21.5 81.5v18h110v-34q0 -47 -19.5 -82t-54 -54.5t-81.5 -19.5l10 19q71 -44 108 -123t37 -185q0 -113 -41.5 -195t-117.5 -126t-180 -44zM393 94
q98 0 154 67.5t56 195.5t-56 194.5t-154 66.5q-97 0 -153 -66.5t-56 -194.5t56 -195.5t153 -67.5z" />
    <glyph glyph-name="ohorn" unicode="&#x1a1;" horiz-adv-x="592" 
d="M297 -7q-79 0 -136.5 32t-88.5 90.5t-31 138.5q0 81 31 140.5t88.5 91.5t134.5 32q14 0 30.5 -2t30 -4t19.5 -2q25 0 44 9t30 32.5t11 66.5v18h108v-33q0 -67 -37.5 -109.5t-102.5 -48.5l20 26q51 -32 77.5 -88.5t26.5 -128.5q0 -80 -31.5 -138.5t-89 -90.5t-134.5 -32z
M297 89q62 0 95.5 41.5t33.5 124.5q0 82 -33.5 123.5t-95.5 41.5q-63 0 -97.5 -41.5t-34.5 -123.5q0 -83 34 -124.5t98 -41.5z" />
    <glyph glyph-name="Uhorn" unicode="&#x1af;" horiz-adv-x="740" 
d="M674 836h109v-34q0 -68 -40.5 -110t-108.5 -45l34 40v-399q0 -145 -76.5 -220.5t-220.5 -75.5q-147 0 -222.5 75t-75.5 221v424h126v-431q0 -92 43.5 -139.5t128.5 -47.5q82 0 125.5 48t43.5 139v431h38q53 1 74.5 24t21.5 82v18z" />
    <glyph glyph-name="uhorn" unicode="&#x1b0;" horiz-adv-x="616" 
d="M537 636h109v-33q0 -47 -18 -82t-51.5 -55t-79.5 -22l31 40v-484h-122v104l13 1q-22 -55 -66 -83.5t-103 -28.5q-93 0 -139.5 51.5t-46.5 155.5v305h125v-306q0 -55 23 -81t69 -26q55 0 88 36t33 96v281h36q54 0 76.5 26t22.5 87v18z" />
    <glyph glyph-name="uni01C4" unicode="&#x1c4;" horiz-adv-x="1355" 
d="M77 0v712h262q117 0 199 -42t125.5 -121.5t43.5 -191.5q0 -113 -43.5 -193t-126 -122t-198.5 -42h-262zM206 105h125q123 0 184.5 63t61.5 189q0 250 -246 250h-125v-502zM795 0v94l397 558l-1 -43h-396v103h512v-93l-399 -559l2 43h408v-103h-523zM1116 928h99
l-128 -155h-75l-128 155h99l67 -93z" />
    <glyph glyph-name="uni01C5" unicode="&#x1c5;" horiz-adv-x="1287" 
d="M77 0v712h262q117 0 199 -42t125.5 -121.5t43.5 -191.5q0 -113 -43.5 -193t-126 -122t-198.5 -42h-262zM206 105h125q123 0 184.5 63t61.5 189q0 250 -246 250h-125v-502zM810 0v87l307 356l10 -32h-311v94h422v-85l-309 -359l-7 34h327v-95h-439zM1094 776h102
l-126 -206h-79l-126 206h102l64 -128z" />
    <glyph glyph-name="uni01C6" unicode="&#x1c6;" horiz-adv-x="1144" 
d="M551 0h-123v128l12 -18q-17 -56 -64.5 -86.5t-111.5 -30.5q-66 0 -116.5 32.5t-78.5 92.5t-28 139t27.5 138t78.5 91t117 32q64 0 111.5 -32t64.5 -86l-14 -15v351h125v-736zM298 89q62 0 96 43t34 123q0 79 -34 122t-96 43q-63 0 -98 -42.5t-35 -120.5q0 -80 35 -124
t98 -44zM668 0v87l307 356l10 -32h-311v94h422v-85l-309 -359l-7 34h327v-95h-439zM952 776h102l-126 -206h-79l-126 206h102l64 -128z" />
    <glyph glyph-name="uni01C7" unicode="&#x1c7;" horiz-adv-x="862" 
d="M77 0v712h129v-606h302v-106h-431zM498 -178v105q63 -9 97 -4.5t47.5 29.5t13.5 77v683h129v-682q0 -88 -26.5 -140t-89.5 -68.5t-171 0.5z" />
    <glyph glyph-name="uni01C8" unicode="&#x1c8;" horiz-adv-x="820" 
d="M77 0v712h129v-606h332v-106h-461zM499 -111q15 -4 26 -6t23 -2q22 0 40 8.5t28.5 27.5t10.5 53v535h125v-541q0 -90 -45.5 -138t-129.5 -48q-20 0 -40 2.5t-38 8.5v100zM620 734h139v-123h-139v123z" />
    <glyph glyph-name="uni01C9" unicode="&#x1c9;" horiz-adv-x="521" 
d="M67 0v736h125v-736h-125zM199 -111q15 -4 26 -6t23 -2q22 0 40 8.5t28.5 27.5t10.5 53v535h125v-541q0 -90 -45.5 -138t-129.5 -48q-20 0 -40 2.5t-38 8.5v100zM320 734h139v-123h-139v123z" />
    <glyph glyph-name="uni01CA" unicode="&#x1ca;" horiz-adv-x="1116" 
d="M77 0v712h96l410 -533l-27 -14v547h121v-712h-97l-408 531l26 16v-547h-121zM753 -178v105q63 -9 97 -4.5t47 29.5t13 77v683h129v-682q0 -88 -27 -140t-89.5 -68.5t-169.5 0.5z" />
    <glyph glyph-name="uni01CB" unicode="&#x1cb;" horiz-adv-x="1015" 
d="M77 0v712h96l410 -533l-27 -14v547h121v-712h-97l-408 531l26 16v-547h-121zM694 -111q15 -4 26 -6t23 -2q22 0 40 8.5t28.5 27.5t10.5 53v535h125v-541q0 -90 -45.5 -138t-129.5 -48q-20 0 -40 2.5t-38 8.5v100zM815 734h139v-123h-139v123z" />
    <glyph glyph-name="uni01CC" unicode="&#x1cc;" horiz-adv-x="863" 
d="M67 0v362q0 36 -1.5 72t-6.5 71h118l11 -100l-11 -3q24 57 71.5 86.5t109.5 29.5q180 0 180 -208v-310h-125v305q0 59 -23 86.5t-71 27.5q-58 0 -92.5 -36.5t-34.5 -96.5v-286h-125zM541 -111q15 -4 26 -6t23 -2q22 0 40 8.5t28.5 27.5t10.5 53v535h125v-541
q0 -90 -45.5 -138t-129.5 -48q-20 0 -40 2.5t-38 8.5v100zM662 734h139v-123h-139v123z" />
    <glyph glyph-name="uni01CE" unicode="&#x1ce;" horiz-adv-x="619" 
d="M264 -7q-66 0 -117 31.5t-78.5 90t-27.5 137.5q0 80 28 139.5t78.5 93t116.5 33.5q64 0 111.5 -31.5t64.5 -87.5l-12 -7v113h123v-505h-123v114l12 -4q-17 -56 -64.5 -86.5t-111.5 -30.5zM298 89q62 0 96 43t34 122q0 81 -34 123.5t-96 42.5q-63 0 -98 -44t-35 -124
q0 -78 35 -120.5t98 -42.5zM373 776h102l-126 -206h-79l-126 206h102l64 -128z" />
    <glyph glyph-name="Gcaron" unicode="&#x1e6;" horiz-adv-x="740" 
d="M412 -8q-111 0 -191.5 43.5t-123 125t-42.5 196.5q0 113 42.5 194.5t121.5 125t187 43.5q75 0 140 -21t110 -62l-44 -94q-51 39 -99 56.5t-105 17.5q-109 0 -165.5 -66t-56.5 -194q0 -131 58 -197.5t173 -66.5q44 0 86.5 7.5t80.5 21.5l-30 -48v218h-153v93h270v-342
q-33 -17 -75 -28t-89 -17t-95 -6zM471 928h99l-128 -155h-75l-128 155h99l67 -93z" />
    <glyph glyph-name="gcaron" unicode="&#x1e7;" horiz-adv-x="623" 
d="M299 -223q-117 0 -205 48l20 95q46 -24 90.5 -35.5t92.5 -11.5q67 0 101 33t34 100v125h12q-12 -32 -37.5 -58.5t-61.5 -42t-79 -15.5q-66 0 -117 31t-79.5 87.5t-28.5 132.5t28.5 132.5t79.5 88t117 31.5q65 0 113 -32t65 -86l-12 -2v107h124v-489q0 -118 -65 -178.5
t-192 -60.5zM300 112q62 0 97 41t35 113t-35 113t-97 41q-63 0 -99 -41t-36 -113t36 -113t99 -41zM376 776h102l-126 -206h-79l-126 206h102l64 -128z" />
    <glyph glyph-name="uni01EA" unicode="&#x1ea;" horiz-adv-x="787" 
d="M500 4q-69 -20 -69 -75q0 -27 17 -42t46 -15q13 0 27 3.5t30 11.5l16 -63q-43 -21 -95 -21q-55 0 -90.5 30.5t-35.5 77.5q0 31 14.5 57.5t40.5 42.5l12 -19q-109 -5 -190 38.5t-124.5 126.5t-43.5 199q0 113 41 194.5t117 125.5t180 44q105 0 180.5 -44t117 -125.5
t41.5 -193.5q0 -137 -61 -229t-171 -124zM184 357q0 -128 56 -195.5t153 -67.5q98 0 154 67.5t56 195.5t-56 194.5t-154 66.5q-97 0 -153 -66.5t-56 -194.5z" />
    <glyph glyph-name="uni01EB" unicode="&#x1eb;" horiz-adv-x="592" 
d="M358 -202q-56 0 -92 31.5t-36 79.5q0 33 16.5 60.5t47.5 43.5l8 -20q-81 -1 -139.5 31t-90 91t-31.5 140q0 80 31 139.5t88.5 91.5t136.5 32q77 0 134.5 -32t89 -91.5t31.5 -139.5q0 -93 -43.5 -159.5t-117.5 -88.5q-39 -12 -57.5 -31.5t-18.5 -48.5q0 -28 17.5 -43.5
t47.5 -15.5q27 0 57 16l17 -64q-21 -10 -45.5 -16t-50.5 -6zM297 89q62 0 95.5 41.5t33.5 124.5q0 82 -33.5 123.5t-95.5 41.5q-63 0 -97.5 -41.5t-34.5 -123.5q0 -83 34 -124.5t98 -41.5z" />
    <glyph glyph-name="Aringacute" unicode="&#x1fa;" horiz-adv-x="749" 
d="M0 0l322 712h105l322 -712h-128l-262 612h35l-264 -612h-130zM142 167l49 100h363l47 -100h-459zM375 679q-45 0 -76 30t-31 75q0 44 31 74.5t76 30.5t76.5 -30.5t31.5 -74.5q0 -45 -31.5 -75t-76.5 -30zM375 736q20 0 33 14t13 34t-13 33.5t-33 13.5t-32.5 -13.5
t-12.5 -33.5t12.5 -34t32.5 -14zM462 823l-54 38l87 92h122z" />
    <glyph glyph-name="aringacute" unicode="&#x1fb;" horiz-adv-x="619" 
d="M264 -7q-66 0 -117 31.5t-78.5 90t-27.5 137.5q0 80 28 139.5t78.5 93t116.5 33.5q64 0 111.5 -31.5t64.5 -87.5l-12 -7v113h123v-505h-123v114l12 -4q-17 -56 -64.5 -86.5t-111.5 -30.5zM298 89q62 0 96 43t34 122q0 81 -34 123.5t-96 42.5q-63 0 -98 -44t-35 -124
q0 -78 35 -120.5t98 -42.5zM310 570q-46 0 -77.5 31t-31.5 77q0 44 31.5 75t77.5 31q45 0 77.5 -31t32.5 -75q0 -46 -32.5 -77t-77.5 -31zM310 628q20 0 33.5 14.5t13.5 35.5q0 20 -13.5 34t-33.5 14q-21 0 -34 -14t-13 -34q0 -21 13 -35.5t34 -14.5zM397 718l-53 35l90 128
l116 -5z" />
    <glyph glyph-name="AEacute" unicode="&#x1fc;" horiz-adv-x="1007" 
d="M-20 0l442 712h543v-102h-503l30 17l-372 -627h-140zM140 167l48 100h371l27 -100h-446zM553 0l-50 654h115l44 -552h303v-102h-412zM570 311v102h374v-102h-374zM546 773h-79l102 155h122z" />
    <glyph glyph-name="aeacute" unicode="&#x1fd;" horiz-adv-x="872" 
d="M632 -7q-115 0 -179 67.5t-65 192.5q-1 79 28 138.5t81.5 93t121.5 33.5q65 0 113 -31.5t74.5 -88.5t26.5 -134v-18h-355v67h281l-33 -34q1 72 -27.5 110.5t-82.5 38.5q-58 0 -91 -43.5t-33 -132.5q0 -76 35.5 -119.5t111.5 -43.5q37 0 76 13.5t75 39.5l34 -86
q-35 -29 -87 -46t-105 -17zM244 -7q-56 0 -100.5 20t-69.5 57t-26 85q0 56 28 90.5t91 51t167 16.5h46v-65h-39q-64 0 -101 -10t-53 -29t-16 -48q0 -36 25 -57.5t63 -21.5q36 0 61 16.5t38.5 46t13.5 66.5v110q0 53 -21.5 77t-71.5 24q-43 0 -87.5 -13.5t-87.5 -39.5l-35 86
q28 19 64 33t75.5 22t74.5 8q101 0 149.5 -51.5t48.5 -156.5v-112l-41 -6q-3 -95 -56.5 -147t-139.5 -52zM472 570h-79l99 206h128z" />
    <glyph glyph-name="Oslashacute" unicode="&#x1fe;" horiz-adv-x="787" 
d="M393 -8q-104 0 -180 44t-117 126t-41 194q0 113 41 194.5t117 125.5t180 44q105 0 181 -44t117 -125.5t41 -193.5q0 -113 -41.5 -195t-117 -126t-180.5 -44zM207 -60l-84 50l456 782l84 -50zM393 94q98 0 154 67.5t56 195.5t-56 194.5t-154 66.5q-97 0 -153 -66.5
t-56 -194.5t56 -195.5t153 -67.5zM431 773h-79l102 155h122z" />
    <glyph glyph-name="oslashacute" unicode="&#x1ff;" horiz-adv-x="592" 
d="M297 -7q-79 0 -136.5 32t-88.5 90.5t-31 139.5q0 80 31 139.5t88.5 91.5t136.5 32q77 0 134.5 -32t89 -91.5t31.5 -139.5q0 -81 -31.5 -139.5t-89 -90.5t-134.5 -32zM157 -58l-63 38l341 586l64 -36zM297 89q64 0 98 41.5t34 124.5q0 82 -34.5 124.5t-97.5 42.5
q-65 0 -99.5 -42.5t-34.5 -124.5q0 -83 34.5 -124.5t99.5 -41.5zM336 570h-79l99 206h128z" />
    <glyph glyph-name="uni0200" unicode="&#x200;" horiz-adv-x="749" 
d="M130 0h-130l322 712h105l322 -712h-128l-262 612h35zM142 167l49 100h363l47 -100h-459zM408 773l-100 155h91l73 -155h-64zM275 773l-99 155h89l74 -155h-64z" />
    <glyph glyph-name="uni0201" unicode="&#x201;" horiz-adv-x="619" 
d="M264 -7q-66 0 -117 31.5t-78.5 90t-27.5 137.5q0 80 28 139.5t78.5 93t116.5 33.5q64 0 111.5 -31.5t64.5 -87.5l-12 -7v113h123v-505h-123v114l12 -4q-17 -56 -64.5 -86.5t-111.5 -30.5zM298 89q62 0 96 43t34 122q0 81 -34 123.5t-96 42.5q-63 0 -98 -44t-35 -124
q0 -78 35 -120.5t98 -42.5zM348 570l-79 206h96l39 -206h-56zM215 570l-79 206h97l38 -206h-56z" />
    <glyph glyph-name="uni0202" unicode="&#x202;" horiz-adv-x="749" 
d="M130 0h-130l322 712h105l322 -712h-128l-262 612h35zM142 167l49 100h363l47 -100h-459zM374 919q59 0 105.5 -26.5t67.5 -82.5l-62 -26q-21 33 -49 45.5t-62 12.5t-62.5 -12.5t-49.5 -45.5l-62 26q21 56 67.5 82.5t106.5 26.5z" />
    <glyph glyph-name="uni0203" unicode="&#x203;" horiz-adv-x="619" 
d="M264 -7q-66 0 -117 31.5t-78.5 90t-27.5 137.5q0 80 28 139.5t78.5 93t116.5 33.5q64 0 111.5 -31.5t64.5 -87.5l-12 -7v113h123v-505h-123v114l12 -4q-17 -56 -64.5 -86.5t-111.5 -30.5zM298 89q62 0 96 43t34 122q0 81 -34 123.5t-96 42.5q-63 0 -98 -44t-35 -124
q0 -78 35 -120.5t98 -42.5zM310 758q38 0 74 -14.5t64 -45t41 -79.5l-63 -26q-24 46 -53 65t-63 19t-63.5 -19t-53.5 -65l-63 26q13 49 40.5 79.5t64 45t75.5 14.5z" />
    <glyph glyph-name="uni0204" unicode="&#x204;" horiz-adv-x="595" 
d="M77 0v712h476v-101h-350v-198h330v-102h-330v-210h350v-101h-476zM365 773l-100 155h91l73 -155h-64zM232 773l-99 155h89l74 -155h-64z" />
    <glyph glyph-name="uni0205" unicode="&#x205;" horiz-adv-x="548" 
d="M501 56q-36 -30 -88.5 -46.5t-106.5 -16.5q-82 0 -141.5 31t-91.5 90t-32 140q0 78 31 137.5t86 93t127 33.5q70 0 120 -30.5t77.5 -87.5t27.5 -135v-19h-359l1 67h284l-34 -34q1 73 -28.5 111t-85.5 38q-60 0 -93 -42.5t-33 -121.5q0 -90 37 -132.5t112 -42.5
q41 0 80.5 13.5t73.5 39.5zM323 570l-79 206h96l39 -206h-56zM190 570l-79 206h97l38 -206h-56z" />
    <glyph glyph-name="uni0206" unicode="&#x206;" horiz-adv-x="595" 
d="M77 0v712h476v-101h-350v-198h330v-102h-330v-210h350v-101h-476zM331 919q59 0 105.5 -26.5t67.5 -82.5l-62 -26q-21 33 -49 45.5t-62 12.5t-62.5 -12.5t-49.5 -45.5l-62 26q21 56 67.5 82.5t106.5 26.5z" />
    <glyph glyph-name="uni0207" unicode="&#x207;" horiz-adv-x="548" 
d="M501 56q-36 -30 -88.5 -46.5t-106.5 -16.5q-82 0 -141.5 31t-91.5 90t-32 140q0 78 31 137.5t86 93t127 33.5q70 0 120 -30.5t77.5 -87.5t27.5 -135v-19h-359l1 67h284l-34 -34q1 73 -28.5 111t-85.5 38q-60 0 -93 -42.5t-33 -121.5q0 -90 37 -132.5t112 -42.5
q41 0 80.5 13.5t73.5 39.5zM285 758q38 0 74 -14.5t64 -45t41 -79.5l-63 -26q-24 46 -53 65t-63 19t-63.5 -19t-53.5 -65l-63 26q13 49 40.5 79.5t64 45t75.5 14.5z" />
    <glyph glyph-name="uni0208" unicode="&#x208;" horiz-adv-x="284" 
d="M77 0v712h129v-712h-129zM175 773l-100 155h91l73 -155h-64zM42 773l-99 155h89l74 -155h-64z" />
    <glyph glyph-name="uni0209" unicode="&#x209;" horiz-adv-x="260" 
d="M67 0v505h125v-505h-125zM169 570l-79 206h96l39 -206h-56zM36 570l-79 206h97l38 -206h-56z" />
    <glyph glyph-name="uni020A" unicode="&#x20a;" horiz-adv-x="284" 
d="M77 0v712h129v-712h-129zM141 919q59 0 105.5 -26.5t67.5 -82.5l-62 -26q-21 33 -49 45.5t-62 12.5t-62.5 -12.5t-49.5 -45.5l-62 26q21 56 67.5 82.5t106.5 26.5z" />
    <glyph glyph-name="uni020B" unicode="&#x20b;" horiz-adv-x="260" 
d="M67 0v505h125v-505h-125zM131 758q38 0 74 -14.5t64 -45t41 -79.5l-63 -26q-24 46 -53 65t-63 19t-63.5 -19t-53.5 -65l-63 26q13 49 40.5 79.5t64 45t75.5 14.5z" />
    <glyph glyph-name="uni020C" unicode="&#x20c;" horiz-adv-x="787" 
d="M393 -8q-104 0 -180 44t-117 126t-41 194q0 113 41 194.5t117 125.5t180 44q105 0 181 -44t117 -125.5t41 -193.5q0 -113 -41.5 -195t-117 -126t-180.5 -44zM393 94q98 0 154 67.5t56 195.5t-56 194.5t-154 66.5q-97 0 -153 -66.5t-56 -194.5t56 -195.5t153 -67.5z
M426 773l-100 155h91l73 -155h-64zM293 773l-99 155h89l74 -155h-64z" />
    <glyph glyph-name="uni020D" unicode="&#x20d;" horiz-adv-x="592" 
d="M297 -7q-79 0 -136.5 32t-88.5 90.5t-31 139.5q0 80 31 139.5t88.5 91.5t136.5 32q77 0 134.5 -32t89 -91.5t31.5 -139.5q0 -81 -31.5 -139.5t-89 -90.5t-134.5 -32zM297 89q62 0 95.5 41.5t33.5 124.5q0 82 -33.5 123.5t-95.5 41.5q-63 0 -97.5 -41.5t-34.5 -123.5
q0 -83 34 -124.5t98 -41.5zM335 570l-79 206h96l39 -206h-56zM202 570l-79 206h97l38 -206h-56z" />
    <glyph glyph-name="uni020E" unicode="&#x20e;" horiz-adv-x="787" 
d="M393 -8q-104 0 -180 44t-117 126t-41 194q0 113 41 194.5t117 125.5t180 44q105 0 181 -44t117 -125.5t41 -193.5q0 -113 -41.5 -195t-117 -126t-180.5 -44zM393 94q98 0 154 67.5t56 195.5t-56 194.5t-154 66.5q-97 0 -153 -66.5t-56 -194.5t56 -195.5t153 -67.5z
M392 919q59 0 105.5 -26.5t67.5 -82.5l-62 -26q-21 33 -49 45.5t-62 12.5t-62.5 -12.5t-49.5 -45.5l-62 26q21 56 67.5 82.5t106.5 26.5z" />
    <glyph glyph-name="uni020F" unicode="&#x20f;" horiz-adv-x="592" 
d="M297 -7q-79 0 -136.5 32t-88.5 90.5t-31 139.5q0 80 31 139.5t88.5 91.5t136.5 32q77 0 134.5 -32t89 -91.5t31.5 -139.5q0 -81 -31.5 -139.5t-89 -90.5t-134.5 -32zM297 89q62 0 95.5 41.5t33.5 124.5q0 82 -33.5 123.5t-95.5 41.5q-63 0 -97.5 -41.5t-34.5 -123.5
q0 -83 34 -124.5t98 -41.5zM297 758q38 0 74 -14.5t64 -45t41 -79.5l-63 -26q-24 46 -53 65t-63 19t-63.5 -19t-53.5 -65l-63 26q13 49 40.5 79.5t64 45t75.5 14.5z" />
    <glyph glyph-name="uni0210" unicode="&#x210;" horiz-adv-x="702" 
d="M77 0v712h305q121 0 184 -53t63 -152q0 -94 -65 -149.5t-181 -55.5l80 16q37 0 66 -22t46 -68l88 -228h-136l-90 237q-14 35 -39.5 47t-63.5 12h-130v-296h-127zM203 396h161q74 0 108 27t34 81q0 55 -34 81t-108 26h-161v-215zM385 773l-100 155h91l73 -155h-64z
M252 773l-99 155h89l74 -155h-64z" />
    <glyph glyph-name="uni0211" unicode="&#x211;" horiz-adv-x="392" 
d="M67 0v362q0 35 -1.5 71.5t-6.5 71.5h118l14 -130l-14 7q13 67 59 101t104 34q15 0 28 -2t23 -6l-2 -114q-31 13 -66 13q-45 0 -73.5 -18t-43 -48.5t-14.5 -68.5v-273h-125zM271 570l-79 206h96l39 -206h-56zM138 570l-79 206h97l38 -206h-56z" />
    <glyph glyph-name="uni0212" unicode="&#x212;" horiz-adv-x="702" 
d="M77 0v712h305q121 0 184 -53t63 -152q0 -94 -65 -149.5t-181 -55.5l80 16q37 0 66 -22t46 -68l88 -228h-136l-90 237q-14 35 -39.5 47t-63.5 12h-130v-296h-127zM203 396h161q74 0 108 27t34 81q0 55 -34 81t-108 26h-161v-215zM351 919q59 0 105.5 -26.5t67.5 -82.5
l-62 -26q-21 33 -49 45.5t-62 12.5t-62.5 -12.5t-49.5 -45.5l-62 26q21 56 67.5 82.5t106.5 26.5z" />
    <glyph glyph-name="uni0213" unicode="&#x213;" horiz-adv-x="392" 
d="M67 0v362q0 35 -1.5 71.5t-6.5 71.5h118l14 -130l-14 7q13 67 59 101t104 34q15 0 28 -2t23 -6l-2 -114q-31 13 -66 13q-45 0 -73.5 -18t-43 -48.5t-14.5 -68.5v-273h-125zM233 758q38 0 74 -14.5t64 -45t41 -79.5l-63 -26q-24 46 -53 65t-63 19t-63.5 -19t-53.5 -65
l-63 26q13 49 40.5 79.5t64 45t75.5 14.5z" />
    <glyph glyph-name="uni0214" unicode="&#x214;" horiz-adv-x="740" 
d="M371 -8q-147 0 -222.5 75t-75.5 221v424h126v-431q0 -92 43.5 -139.5t128.5 -47.5q82 0 125.5 48t43.5 139v431h128v-424q0 -145 -76.5 -220.5t-220.5 -75.5zM405 773l-100 155h91l73 -155h-64zM272 773l-99 155h89l74 -155h-64z" />
    <glyph glyph-name="uni0215" unicode="&#x215;" horiz-adv-x="595" 
d="M250 -7q-93 0 -139.5 51.5t-46.5 155.5v305h125v-306q0 -55 23 -81t69 -26q55 0 88 36t33 96v281h126v-505h-122v104l13 1q-22 -55 -66 -83.5t-103 -28.5zM336 570l-79 206h96l39 -206h-56zM203 570l-79 206h97l38 -206h-56z" />
    <glyph glyph-name="uni0216" unicode="&#x216;" horiz-adv-x="740" 
d="M371 -8q-147 0 -222.5 75t-75.5 221v424h126v-431q0 -92 43.5 -139.5t128.5 -47.5q82 0 125.5 48t43.5 139v431h128v-424q0 -145 -76.5 -220.5t-220.5 -75.5zM371 919q59 0 105.5 -26.5t67.5 -82.5l-62 -26q-21 33 -49 45.5t-62 12.5t-62.5 -12.5t-49.5 -45.5l-62 26
q21 56 67.5 82.5t106.5 26.5z" />
    <glyph glyph-name="uni0217" unicode="&#x217;" horiz-adv-x="595" 
d="M250 -7q-93 0 -139.5 51.5t-46.5 155.5v305h125v-306q0 -55 23 -81t69 -26q55 0 88 36t33 96v281h126v-505h-122v104l13 1q-22 -55 -66 -83.5t-103 -28.5zM298 758q38 0 74 -14.5t64 -45t41 -79.5l-63 -26q-24 46 -53 65t-63 19t-63.5 -19t-53.5 -65l-63 26
q13 49 40.5 79.5t64 45t75.5 14.5z" />
    <glyph glyph-name="uni0218" unicode="&#x218;" horiz-adv-x="645" 
d="M318 -8q-55 0 -105 9.5t-93.5 28.5t-76.5 46l43 94q54 -40 110 -58t123 -18q74 0 114.5 26t40.5 73q0 28 -18 46.5t-54 31.5t-89 25q-63 12 -111 29.5t-80 41.5t-48.5 57.5t-16.5 79.5q0 63 34 112t95.5 76.5t144.5 27.5q50 0 97.5 -10t87.5 -28.5t69 -45.5l-44 -94
q-48 39 -100 57.5t-109 18.5q-69 0 -109 -28t-40 -78q0 -29 16.5 -48t51 -32t88.5 -26q62 -13 110.5 -30t82.5 -40.5t51.5 -56t17.5 -77.5q0 -64 -34 -111.5t-97.5 -73t-151.5 -25.5zM387 -69v-62q0 -42 -12 -76t-45 -65l-48 34q22 22 29.5 42.5t7.5 43.5l29 -20h-92v103
h131z" />
    <glyph glyph-name="uni0219" unicode="&#x219;" horiz-adv-x="501" 
d="M253 -7q-138 0 -218 63l35 88q40 -30 87 -45t98 -15q46 0 70 15t24 42q0 23 -17 36.5t-58 23.5l-84 19q-69 15 -103.5 50.5t-34.5 90.5q0 46 26 81.5t73 55.5t109 20q54 0 104 -16.5t87 -47.5l-36 -86q-38 29 -77.5 43t-78.5 14q-43 0 -67 -16t-24 -44q0 -22 14.5 -35
t50.5 -21l85 -21q75 -16 109.5 -51.5t34.5 -93.5q0 -69 -56 -109.5t-153 -40.5zM315 -69v-62q0 -42 -12 -76t-45 -65l-48 34q22 22 29.5 42.5t7.5 43.5l29 -20h-92v103h131z" />
    <glyph glyph-name="uni021A" unicode="&#x21a;" horiz-adv-x="618" 
d="M244 0v606h-232v106h594v-106h-232v-606h-130zM374 -69v-62q0 -42 -12 -76t-45 -65l-48 34q22 22 29.5 42.5t7.5 43.5l29 -20h-92v103h131z" />
    <glyph glyph-name="uni021B" unicode="&#x21b;" horiz-adv-x="379" 
d="M5 411v94h356v-94h-356zM361 104v-99q-20 -7 -39.5 -9.5t-41.5 -2.5q-85 0 -131.5 48t-46.5 138v449l125 42v-485q0 -34 11 -53.5t29.5 -27.5t41.5 -8q13 0 25 2t27 6zM306 -69v-62q0 -42 -12 -76t-45 -65l-48 34q22 22 29.5 42.5t7.5 43.5l29 -20h-92v103h131z" />
    <glyph glyph-name="uni0227" unicode="&#x227;" horiz-adv-x="619" 
d="M264 -7q-66 0 -117 31.5t-78.5 90t-27.5 137.5q0 80 28 139.5t78.5 93t116.5 33.5q64 0 111.5 -31.5t64.5 -87.5l-12 -7v113h123v-505h-123v114l12 -4q-17 -56 -64.5 -86.5t-111.5 -30.5zM298 89q62 0 96 43t34 122q0 81 -34 123.5t-96 42.5q-63 0 -98 -44t-35 -124
q0 -78 35 -120.5t98 -42.5zM240 734h139v-123h-139v123z" />
    <glyph glyph-name="uni0228" unicode="&#x228;" horiz-adv-x="595" 
d="M77 0v712h476v-101h-350v-198h330v-102h-330v-210h350v-101h-476zM321 -197q-20 0 -46 4.5t-46 13.5l12 53q23 -7 42 -10.5t36 -3.5q23 0 36.5 7.5t13.5 21.5q0 23 -34 23q-11 0 -21 -2t-19 -5l-20 18l12 97h73l-10 -75l-33 5q12 5 26 7t26 2q35 0 58 -18t23 -52
q0 -37 -33 -61.5t-96 -24.5z" />
    <glyph glyph-name="uni022A" unicode="&#x22a;" horiz-adv-x="787" 
d="M393 -8q-104 0 -180 44t-117 126t-41 194q0 113 41 194.5t117 125.5t180 44q105 0 181 -44t117 -125.5t41 -193.5q0 -113 -41.5 -195t-117 -126t-180.5 -44zM393 94q98 0 154 67.5t56 195.5t-56 194.5t-154 66.5q-97 0 -153 -66.5t-56 -194.5t56 -195.5t153 -67.5z
M424 908h121v-114h-121v114zM238 908h121v-114h-121v114zM236 972v82h311v-82h-311z" />
    <glyph glyph-name="uni022B" unicode="&#x22b;" horiz-adv-x="592" 
d="M297 -7q-79 0 -136.5 32t-88.5 90.5t-31 139.5q0 80 31 139.5t88.5 91.5t136.5 32q77 0 134.5 -32t89 -91.5t31.5 -139.5q0 -81 -31.5 -139.5t-89 -90.5t-134.5 -32zM297 89q62 0 95.5 41.5t33.5 124.5q0 82 -33.5 123.5t-95.5 41.5q-63 0 -97.5 -41.5t-34.5 -123.5
q0 -83 34 -124.5t98 -41.5zM329 730h121v-115h-121v115zM143 730h121v-115h-121v115zM141 825v82h311v-82h-311z" />
    <glyph glyph-name="uni022C" unicode="&#x22c;" horiz-adv-x="787" 
d="M393 -8q-104 0 -180 44t-117 126t-41 194q0 113 41 194.5t117 125.5t180 44q105 0 181 -44t117 -125.5t41 -193.5q0 -113 -41.5 -195t-117 -126t-180.5 -44zM393 94q98 0 154 67.5t56 195.5t-56 194.5t-154 66.5q-97 0 -153 -66.5t-56 -194.5t56 -195.5t153 -67.5z
M221 785q0 69 29.5 102.5t72.5 33.5q27 0 51 -14t45.5 -27.5t40.5 -13.5q20 0 32 14.5t13 37.5h57q0 -69 -29.5 -102.5t-72.5 -33.5q-27 0 -51 13.5t-45.5 27.5t-40.5 14q-20 0 -32 -14.5t-13 -37.5h-57zM236 972v82h311v-82h-311z" />
    <glyph glyph-name="uni022D" unicode="&#x22d;" horiz-adv-x="592" 
d="M297 -7q-79 0 -136.5 32t-88.5 90.5t-31 139.5q0 80 31 139.5t88.5 91.5t136.5 32q77 0 134.5 -32t89 -91.5t31.5 -139.5q0 -81 -31.5 -139.5t-89 -90.5t-134.5 -32zM297 89q62 0 95.5 41.5t33.5 124.5q0 82 -33.5 123.5t-95.5 41.5q-63 0 -97.5 -41.5t-34.5 -123.5
q0 -83 34 -124.5t98 -41.5zM126 608q0 68 29.5 101.5t72.5 33.5q27 0 51 -13.5t45.5 -27.5t40.5 -14q20 0 32 14.5t13 37.5h57q0 -68 -29.5 -101.5t-72.5 -33.5q-27 0 -51 13.5t-45.5 27t-40.5 13.5q-20 0 -32 -14.5t-13 -36.5h-57zM141 825v82h311v-82h-311z" />
    <glyph glyph-name="uni0230" unicode="&#x230;" horiz-adv-x="787" 
d="M393 -8q-104 0 -180 44t-117 126t-41 194q0 113 41 194.5t117 125.5t180 44q105 0 181 -44t117 -125.5t41 -193.5q0 -113 -41.5 -195t-117 -126t-180.5 -44zM393 94q98 0 154 67.5t56 195.5t-56 194.5t-154 66.5q-97 0 -153 -66.5t-56 -194.5t56 -195.5t153 -67.5z
M322 913h139v-124h-139v124zM236 972v82h311v-82h-311z" />
    <glyph glyph-name="uni0231" unicode="&#x231;" horiz-adv-x="592" 
d="M297 -7q-79 0 -136.5 32t-88.5 90.5t-31 139.5q0 80 31 139.5t88.5 91.5t136.5 32q77 0 134.5 -32t89 -91.5t31.5 -139.5q0 -81 -31.5 -139.5t-89 -90.5t-134.5 -32zM297 89q62 0 95.5 41.5t33.5 124.5q0 82 -33.5 123.5t-95.5 41.5q-63 0 -97.5 -41.5t-34.5 -123.5
q0 -83 34 -124.5t98 -41.5zM227 734h139v-123h-139v123zM141 825v82h311v-82h-311z" />
    <glyph glyph-name="uni0232" unicode="&#x232;" horiz-adv-x="629" 
d="M250 0v320l27 -78l-316 470h147l225 -350h-37l225 350h147l-315 -470l26 78v-320h-129zM158 810v82h311v-82h-311z" />
    <glyph glyph-name="uni0233" unicode="&#x233;" horiz-adv-x="543" 
d="M56 -227l-28 96q47 10 78 23.5t51.5 34.5t34.5 54l36 82l32 46l162 396h124l-234 -539q-29 -66 -67 -105.5t-85.5 -59.5t-103.5 -28zM231 -33l-233 538h131l159 -396zM116 631v82h311v-82h-311z" />
    <glyph glyph-name="uni0237" unicode="&#x237;" horiz-adv-x="260" 
d="M-61 -111q15 -4 26 -6t23 -2q22 0 40 8.5t28.5 27.5t10.5 53v535h125v-541q0 -90 -45.5 -138t-129.5 -48q-20 0 -40 2.5t-38 8.5v100z" />
    <glyph glyph-name="uni0259" unicode="&#x259;" horiz-adv-x="548" 
d="M47 453q38 31 92.5 48t110.5 17q79 0 136.5 -32t89 -91t31.5 -140q0 -79 -29.5 -138.5t-83 -91.5t-124.5 -32q-108 0 -169.5 66.5t-61.5 185.5v20h357l1 -69h-285l37 35q-1 -73 29 -111.5t87 -38.5q61 0 93 43.5t30 126.5q-1 87 -37 129t-108 42q-39 0 -78.5 -14
t-81.5 -41z" />
    <glyph glyph-name="uni02BB" unicode="&#x2bb;" horiz-adv-x="300" 
d="M86 588v62q0 43 11.5 77t44.5 64l48 -33q-22 -22 -29 -43t-7 -45l-30 21h93v-103h-131z" />
    <glyph glyph-name="uni02BC" unicode="&#x2bc;" horiz-adv-x="300" 
d="M214 765v-62q0 -43 -11.5 -77t-44.5 -65l-48 35q22 21 29 42t7 44l30 -20h-93v103h131z" />
    <glyph glyph-name="uni02BE" unicode="&#x2be;" horiz-adv-x="300" 
d="M152 768q29 0 53.5 -14t39 -38t14.5 -53q0 -45 -31.5 -75t-75.5 -30v57q20 0 32.5 13.5t12.5 34.5q0 20 -12.5 33.5t-32.5 13.5v58z" />
    <glyph glyph-name="uni02BF" unicode="&#x2bf;" horiz-adv-x="300" 
d="M152 768v-58q-21 0 -33.5 -13.5t-12.5 -33.5q0 -21 12.5 -34.5t33.5 -13.5v-57q-45 0 -76.5 30t-31.5 75q0 44 31.5 74.5t76.5 30.5z" />
    <glyph glyph-name="circumflex" unicode="&#x2c6;" horiz-adv-x="300" 
d="M88 559h-102l126 206h79l126 -206h-102l-63 127z" />
    <glyph glyph-name="caron" unicode="&#x2c7;" horiz-adv-x="300" 
d="M215 765h102l-126 -206h-79l-126 206h102l64 -128z" />
    <glyph glyph-name="uni02C8" unicode="&#x2c8;" horiz-adv-x="300" 
d="M110 559v205h83v-205h-83z" />
    <glyph glyph-name="uni02C9" unicode="&#x2c9;" horiz-adv-x="300" 
d="M-4 620v82h311v-82h-311z" />
    <glyph glyph-name="uni02CA" unicode="&#x2ca;" horiz-adv-x="300" 
d="M191 559h-79l99 206h128z" />
    <glyph glyph-name="uni02CB" unicode="&#x2cb;" horiz-adv-x="300" 
d="M112 559l-148 206h128l99 -206h-79z" />
    <glyph glyph-name="uni02CC" unicode="&#x2cc;" horiz-adv-x="300" 
d="M110 -273v205h83v-205h-83z" />
    <glyph glyph-name="breve" unicode="&#x2d8;" horiz-adv-x="300" 
d="M152 585q-39 0 -75 14.5t-64 45t-41 79.5l63 27q24 -46 53.5 -65t63.5 -19t63 19t53 65l63 -27q-13 -49 -40.5 -79.5t-64 -45t-74.5 -14.5z" />
    <glyph glyph-name="dotaccent" unicode="&#x2d9;" horiz-adv-x="300" 
d="M82 723h139v-123h-139v123z" />
    <glyph glyph-name="ring" unicode="&#x2da;" horiz-adv-x="300" 
d="M152 557q-45 0 -76.5 30t-31.5 76q0 44 31.5 74.5t76.5 30.5q29 0 53.5 -14.5t39 -38t14.5 -52.5q0 -46 -31.5 -76t-75.5 -30zM152 614q20 0 32.5 14t12.5 35q0 19 -12.5 32.5t-32.5 13.5q-21 0 -33.5 -13.5t-12.5 -33.5t12.5 -34t33.5 -14z" />
    <glyph glyph-name="ogonek" unicode="&#x2db;" horiz-adv-x="300" 
d="M114 -197q-53 0 -88.5 30t-35.5 78q0 50 36.5 87t109.5 46l16 -34q-39 -9 -58 -30t-19 -51q0 -28 16.5 -42.5t45.5 -14.5q13 0 27 3.5t29 11.5l17 -63q-20 -10 -44.5 -15.5t-51.5 -5.5z" />
    <glyph glyph-name="tilde" unicode="&#x2dc;" horiz-adv-x="300" 
d="M-19 597q0 68 29.5 101.5t72.5 33.5q27 0 51 -13.5t45.5 -27.5t40.5 -14q20 0 32 14.5t13 37.5h57q0 -68 -29.5 -101.5t-72.5 -33.5q-27 0 -51 13.5t-45.5 27t-40.5 13.5q-20 0 -32 -14.5t-13 -36.5h-57z" />
    <glyph glyph-name="hungarumlaut" unicode="&#x2dd;" horiz-adv-x="300" 
d="M113 559h-56l39 206h96zM246 559h-56l38 206h97z" />
    <glyph glyph-name="gravecomb" unicode="&#x300;" 
d="M112 559l-148 206h128l99 -206h-79z" />
    <glyph glyph-name="acutecomb" unicode="&#x301;" 
d="M191 559h-79l99 206h128z" />
    <glyph glyph-name="uni0302" unicode="&#x302;" 
d="M88 559h-102l126 206h79l126 -206h-102l-63 127z" />
    <glyph glyph-name="tildecomb" unicode="&#x303;" 
d="M-19 597q0 68 29.5 101.5t72.5 33.5q27 0 51 -13.5t45.5 -27.5t40.5 -14q20 0 32 14.5t13 37.5h57q0 -68 -29.5 -101.5t-72.5 -33.5q-27 0 -51 13.5t-45.5 27t-40.5 13.5q-20 0 -32 -14.5t-13 -36.5h-57z" />
    <glyph glyph-name="uni0304" unicode="&#x304;" 
d="M-4 620v82h311v-82h-311z" />
    <glyph glyph-name="uni0306" unicode="&#x306;" 
d="M152 585q-39 0 -75 14.5t-64 45t-41 79.5l63 27q24 -46 53.5 -65t63.5 -19t63 19t53 65l63 -27q-13 -49 -40.5 -79.5t-64 -45t-74.5 -14.5z" />
    <glyph glyph-name="uni0307" unicode="&#x307;" 
d="M82 723h139v-123h-139v123z" />
    <glyph glyph-name="uni0308" unicode="&#x308;" 
d="M184 719h121v-115h-121v115zM-2 719h121v-115h-121v115z" />
    <glyph glyph-name="hookabovecomb" unicode="&#x309;" 
d="M187 579v-20h-67v26q0 21 9 35t21 24t21 19.5t9 19.5q0 12 -9 18t-27 6q-12 0 -25 -2t-28 -8l-19 52q22 11 43 15t42 4q54 0 82 -22t28 -51q0 -24 -12 -39t-28 -26.5t-28 -22.5t-12 -28z" />
    <glyph glyph-name="uni030A" unicode="&#x30a;" 
d="M152 557q-45 0 -76.5 30t-31.5 76q0 44 31.5 74.5t76.5 30.5q29 0 53.5 -14.5t39 -38t14.5 -52.5q0 -46 -31.5 -76t-75.5 -30zM152 614q20 0 32.5 14t12.5 35q0 19 -12.5 32.5t-32.5 13.5q-21 0 -33.5 -13.5t-12.5 -33.5t12.5 -34t33.5 -14z" />
    <glyph glyph-name="uni030B" unicode="&#x30b;" 
d="M113 559h-56l39 206h96zM246 559h-56l38 206h97z" />
    <glyph glyph-name="uni030C" unicode="&#x30c;" 
d="M215 765h102l-126 -206h-79l-126 206h102l64 -128z" />
    <glyph glyph-name="uni030F" unicode="&#x30f;" 
d="M190 559l-79 206h96l39 -206h-56zM57 559l-79 206h97l38 -206h-56z" />
    <glyph glyph-name="uni0311" unicode="&#x311;" 
d="M152 747q38 0 74 -14.5t64 -45t41 -79.5l-63 -26q-24 46 -53 65t-63 19t-63.5 -19t-53.5 -65l-63 26q13 49 40.5 79.5t64 45t75.5 14.5z" />
    <glyph glyph-name="uni0312" unicode="&#x312;" 
d="M86 588v62q0 43 11.5 77t44.5 64l48 -33q-22 -22 -29 -43t-7 -45l-30 21h93v-103h-131z" />
    <glyph glyph-name="uni031B" unicode="&#x31b;" 
d="M222 434l-71 45v19q36 1 58 10.5t32 32.5t10 63v18h109v-33q0 -65 -37 -107t-101 -48z" />
    <glyph glyph-name="dotbelowcomb" unicode="&#x323;" 
d="M90 -78h123v-117h-123v117z" />
    <glyph glyph-name="uni0324" unicode="&#x324;" 
d="M184 -78h121v-116h-121v116zM-2 -78h121v-116h-121v116z" />
    <glyph glyph-name="uni0326" unicode="&#x326;" 
d="M217 -69v-62q0 -42 -12 -76t-45 -65l-48 34q22 22 29.5 42.5t7.5 43.5l29 -20h-92v103h131z" />
    <glyph glyph-name="uni0327" unicode="&#x327;" 
d="M143 -197q-20 0 -46 4.5t-46 13.5l12 53q23 -7 42 -10.5t36 -3.5q23 0 36.5 7.5t13.5 21.5q0 23 -34 23q-11 0 -21 -2t-19 -5l-20 18l12 97h73l-10 -75l-33 5q12 5 26 7t26 2q35 0 58 -18t23 -52q0 -37 -33 -61.5t-96 -24.5z" />
    <glyph glyph-name="uni0328" unicode="&#x328;" 
d="M114 -197q-53 0 -88.5 30t-35.5 78q0 50 36.5 87t109.5 46l16 -34q-39 -9 -58 -30t-19 -51q0 -28 16.5 -42.5t45.5 -14.5q13 0 27 3.5t29 11.5l17 -63q-20 -10 -44.5 -15.5t-51.5 -5.5z" />
    <glyph glyph-name="uni032E" unicode="&#x32e;" 
d="M152 -223q-39 0 -75 14.5t-64 45.5t-41 79l63 26q24 -45 53.5 -64t63.5 -19t63 19t53 64l63 -26q-13 -48 -40.5 -79t-64 -45.5t-74.5 -14.5z" />
    <glyph glyph-name="uni0331" unicode="&#x331;" 
d="M-4 -176v78h311v-78h-311z" />
    <glyph glyph-name="uni0335" unicode="&#x335;" 
d="M-4 213v74h311v-74h-311z" />
    <glyph glyph-name="uni0394" unicode="&#x394;" horiz-adv-x="746" 
d="M32 0v87l291 625h102l290 -625v-87h-683zM146 59l-27 48h510l-27 -48l-243 548h32z" />
    <glyph glyph-name="Sigma" unicode="&#x3a3;" horiz-adv-x="603" 
d="M557 -77v-105h-514v94l277 390v-74l-277 391v93h514v-104h-397v44l247 -346l-1 -81l-246 -347v45h397z" />
    <glyph glyph-name="uni03A9" unicode="&#x3a9;" horiz-adv-x="807" 
d="M404 721q107 0 186 -38t122.5 -107t43.5 -162q0 -94 -52.5 -180.5t-158.5 -166.5l20 37h180v-104h-281v101q83 75 123 151.5t40 158.5q0 98 -59.5 152.5t-163.5 54.5q-106 0 -165 -54.5t-59 -152.5q0 -83 41 -159t124 -151v-101h-282v104h179l21 -37q-107 80 -160 166.5
t-53 180.5q0 93 44 162t123.5 107t186.5 38z" />
    <glyph glyph-name="uni03BC" unicode="&#x3bc;" horiz-adv-x="595" 
d="M528 505v-505h-122v104l13 1q-22 -55 -66 -83.5t-103 -28.5q-28 0 -48.5 6t-38.5 18l26 37v-270h-125v721h125v-306q0 -55 23 -81t69 -26q55 0 88 36t33 96v281h126z" />
    <glyph glyph-name="pi" unicode="&#x3c0;" horiz-adv-x="619" 
d="M163 0h-130q25 76 41.5 151t25 151.5t8.5 160.5h125q0 -82 -6 -158t-21 -151t-43 -154zM5 411v94h576v-94h-576zM344 459h125v-275q0 -47 22 -69.5t71 -25.5l51 -4l-9 -93l-49 3q-75 5 -121.5 27.5t-68 66.5t-21.5 114v256z" />
    <glyph glyph-name="uni1E08" unicode="&#x1e08;" horiz-adv-x="684" 
d="M400 -8q-106 0 -184 44.5t-119.5 126.5t-41.5 194q0 111 41.5 192.5t119.5 126t184 44.5q72 0 135.5 -21.5t105.5 -62.5l-42 -94q-49 39 -96 56.5t-101 17.5q-103 0 -159.5 -66.5t-56.5 -192.5t56.5 -193.5t159.5 -67.5q54 0 101 17.5t96 56.5l42 -94
q-42 -41 -105.5 -62.5t-135.5 -21.5zM384 -197q-20 0 -46 4.5t-46 13.5l12 53q23 -7 42 -10.5t36 -3.5q23 0 36.5 7.5t13.5 21.5q0 23 -34 23q-11 0 -21 -2t-19 -5l-20 18l12 97h73l-10 -75l-33 5q12 5 26 7t26 2q35 0 58 -18t23 -52q0 -37 -33 -61.5t-96 -24.5zM434 773
h-79l102 155h122z" />
    <glyph glyph-name="uni1E09" unicode="&#x1e09;" horiz-adv-x="504" 
d="M296 -7q-79 0 -136.5 31.5t-88 90t-30.5 137.5q0 80 32 140t91 93t138 33q53 0 103.5 -17t82.5 -47l-36 -88q-32 26 -68 39.5t-72 13.5q-66 0 -104.5 -42t-38.5 -123q0 -80 38 -122t106 -42q35 0 71 13.5t68 40.5l36 -88q-33 -30 -84.5 -46.5t-107.5 -16.5zM280 -197
q-20 0 -46 4.5t-46 13.5l12 53q23 -7 42 -10.5t36 -3.5q23 0 36.5 7.5t13.5 21.5q0 23 -34 23q-11 0 -21 -2t-19 -5l-20 18l12 97h73l-10 -75l-33 5q12 5 26 7t26 2q35 0 58 -18t23 -52q0 -37 -33 -61.5t-96 -24.5zM337 570h-79l99 206h128z" />
    <glyph glyph-name="uni1E0C" unicode="&#x1e0c;" horiz-adv-x="761" 
d="M77 0v712h262q117 0 199 -42t125.5 -121.5t43.5 -191.5q0 -113 -43.5 -193t-126 -122t-198.5 -42h-262zM206 105h125q123 0 184.5 63t61.5 189q0 250 -246 250h-125v-502zM318 -78h123v-117h-123v117z" />
    <glyph glyph-name="uni1E0D" unicode="&#x1e0d;" horiz-adv-x="619" 
d="M551 0h-123v128l12 -18q-17 -56 -64.5 -86.5t-111.5 -30.5q-66 0 -116.5 32.5t-78.5 92.5t-28 139t27.5 138t78.5 91t117 32q64 0 111.5 -32t64.5 -86l-14 -15v351h125v-736zM298 89q62 0 96 43t34 123q0 79 -34 122t-96 43q-63 0 -98 -42.5t-35 -120.5q0 -80 35 -124
t98 -44zM249 -78h123v-117h-123v117z" />
    <glyph glyph-name="uni1E0E" unicode="&#x1e0e;" horiz-adv-x="761" 
d="M77 0v712h262q117 0 199 -42t125.5 -121.5t43.5 -191.5q0 -113 -43.5 -193t-126 -122t-198.5 -42h-262zM206 105h125q123 0 184.5 63t61.5 189q0 250 -246 250h-125v-502zM224 -176v78h311v-78h-311z" />
    <glyph glyph-name="uni1E0F" unicode="&#x1e0f;" horiz-adv-x="619" 
d="M551 0h-123v128l12 -18q-17 -56 -64.5 -86.5t-111.5 -30.5q-66 0 -116.5 32.5t-78.5 92.5t-28 139t27.5 138t78.5 91t117 32q64 0 111.5 -32t64.5 -86l-14 -15v351h125v-736zM298 89q62 0 96 43t34 123q0 79 -34 122t-96 43q-63 0 -98 -42.5t-35 -120.5q0 -80 35 -124
t98 -44zM155 -176v78h311v-78h-311z" />
    <glyph glyph-name="uni1E14" unicode="&#x1e14;" horiz-adv-x="595" 
d="M77 0v712h476v-101h-350v-198h330v-102h-330v-210h350v-101h-476zM175 810v82h311v-82h-311zM291 935l-145 155h122l102 -155h-79z" />
    <glyph glyph-name="uni1E15" unicode="&#x1e15;" horiz-adv-x="548" 
d="M501 56q-36 -30 -88.5 -46.5t-106.5 -16.5q-82 0 -141.5 31t-91.5 90t-32 140q0 78 31 137.5t86 93t127 33.5q70 0 120 -30.5t77.5 -87.5t27.5 -135v-19h-359l1 67h284l-34 -34q1 73 -28.5 111t-85.5 38q-60 0 -93 -42.5t-33 -121.5q0 -90 37 -132.5t112 -42.5
q41 0 80.5 13.5t73.5 39.5zM129 631v82h311v-82h-311zM245 764l-148 206h128l99 -206h-79z" />
    <glyph glyph-name="uni1E16" unicode="&#x1e16;" horiz-adv-x="595" 
d="M77 0v712h476v-101h-350v-198h330v-102h-330v-210h350v-101h-476zM175 810v82h311v-82h-311zM370 935h-79l102 155h122z" />
    <glyph glyph-name="uni1E17" unicode="&#x1e17;" horiz-adv-x="548" 
d="M501 56q-36 -30 -88.5 -46.5t-106.5 -16.5q-82 0 -141.5 31t-91.5 90t-32 140q0 78 31 137.5t86 93t127 33.5q70 0 120 -30.5t77.5 -87.5t27.5 -135v-19h-359l1 67h284l-34 -34q1 73 -28.5 111t-85.5 38q-60 0 -93 -42.5t-33 -121.5q0 -90 37 -132.5t112 -42.5
q41 0 80.5 13.5t73.5 39.5zM129 631v82h311v-82h-311zM324 764h-79l99 206h128z" />
    <glyph glyph-name="uni1E1C" unicode="&#x1e1c;" horiz-adv-x="595" 
d="M77 0v712h476v-101h-350v-198h330v-102h-330v-210h350v-101h-476zM321 -197q-20 0 -46 4.5t-46 13.5l12 53q23 -7 42 -10.5t36 -3.5q23 0 36.5 7.5t13.5 21.5q0 23 -34 23q-11 0 -21 -2t-19 -5l-20 18l12 97h73l-10 -75l-33 5q12 5 26 7t26 2q35 0 58 -18t23 -52
q0 -37 -33 -61.5t-96 -24.5zM331 783q-60 0 -106.5 26t-67.5 83l62 27q21 -34 49.5 -46t62.5 -12t62 12t49 46l62 -27q-21 -57 -67.5 -83t-105.5 -26z" />
    <glyph glyph-name="uni1E1D" unicode="&#x1e1d;" horiz-adv-x="548" 
d="M501 56q-36 -30 -88.5 -46.5t-106.5 -16.5q-82 0 -141.5 31t-91.5 90t-32 140q0 78 31 137.5t86 93t127 33.5q70 0 120 -30.5t77.5 -87.5t27.5 -135v-19h-359l1 67h284l-34 -34q1 73 -28.5 111t-85.5 38q-60 0 -93 -42.5t-33 -121.5q0 -90 37 -132.5t112 -42.5
q41 0 80.5 13.5t73.5 39.5zM293 -197q-20 0 -46 4.5t-46 13.5l12 53q23 -7 42 -10.5t36 -3.5q23 0 36.5 7.5t13.5 21.5q0 23 -34 23q-11 0 -21 -2t-19 -5l-20 18l12 97h73l-10 -75l-33 5q12 5 26 7t26 2q35 0 58 -18t23 -52q0 -37 -33 -61.5t-96 -24.5zM285 596
q-39 0 -75 14.5t-64 45t-41 79.5l63 27q24 -46 53.5 -65t63.5 -19t63 19t53 65l63 -27q-13 -49 -40.5 -79.5t-64 -45t-74.5 -14.5z" />
    <glyph glyph-name="uni1E20" unicode="&#x1e20;" horiz-adv-x="740" 
d="M412 -8q-111 0 -191.5 43.5t-123 125t-42.5 196.5q0 113 42.5 194.5t121.5 125t187 43.5q75 0 140 -21t110 -62l-44 -94q-51 39 -99 56.5t-105 17.5q-109 0 -165.5 -66t-56.5 -194q0 -131 58 -197.5t173 -66.5q44 0 86.5 7.5t80.5 21.5l-30 -48v218h-153v93h270v-342
q-33 -17 -75 -28t-89 -17t-95 -6zM249 810v82h311v-82h-311z" />
    <glyph glyph-name="uni1E21" unicode="&#x1e21;" horiz-adv-x="623" 
d="M299 -223q-117 0 -205 48l20 95q46 -24 90.5 -35.5t92.5 -11.5q67 0 101 33t34 100v125h12q-12 -32 -37.5 -58.5t-61.5 -42t-79 -15.5q-66 0 -117 31t-79.5 87.5t-28.5 132.5t28.5 132.5t79.5 88t117 31.5q65 0 113 -32t65 -86l-12 -2v107h124v-489q0 -118 -65 -178.5
t-192 -60.5zM300 112q62 0 97 41t35 113t-35 113t-97 41q-63 0 -99 -41t-36 -113t36 -113t99 -41zM157 631v82h311v-82h-311z" />
    <glyph glyph-name="uni1E24" unicode="&#x1e24;" horiz-adv-x="774" 
d="M570 0v712h126v-712h-126zM77 0v712h127v-712h-127zM123 310v103h521v-103h-521zM325 -78h123v-117h-123v117z" />
    <glyph glyph-name="uni1E25" unicode="&#x1e25;" horiz-adv-x="602" 
d="M67 0v736h125v-333l-15 -1q24 57 71.5 86.5t109.5 29.5q180 0 180 -208v-310h-125v305q0 59 -23 86.5t-71 27.5q-58 0 -92.5 -36.5t-34.5 -96.5v-286h-125zM241 -78h123v-117h-123v117z" />
    <glyph glyph-name="uni1E2A" unicode="&#x1e2a;" horiz-adv-x="774" 
d="M570 0v712h126v-712h-126zM77 0v712h127v-712h-127zM123 310v103h521v-103h-521zM387 -223q-39 0 -75 14.5t-64 45.5t-41 79l63 26q24 -45 53.5 -64t63.5 -19t63 19t53 64l63 -26q-13 -48 -40.5 -79t-64 -45.5t-74.5 -14.5z" />
    <glyph glyph-name="uni1E2B" unicode="&#x1e2b;" horiz-adv-x="602" 
d="M67 0v736h125v-333l-15 -1q24 57 71.5 86.5t109.5 29.5q180 0 180 -208v-310h-125v305q0 59 -23 86.5t-71 27.5q-58 0 -92.5 -36.5t-34.5 -96.5v-286h-125zM303 -223q-39 0 -75 14.5t-64 45.5t-41 79l63 26q24 -45 53.5 -64t63.5 -19t63 19t53 64l63 -26
q-13 -48 -40.5 -79t-64 -45.5t-74.5 -14.5z" />
    <glyph glyph-name="uni1E2E" unicode="&#x1e2e;" horiz-adv-x="284" 
d="M77 0v712h129v-712h-129zM173 908h121v-114h-121v114zM-13 908h121v-114h-121v114zM180 935h-79l102 155h122z" />
    <glyph glyph-name="uni1E2F" unicode="&#x1e2f;" horiz-adv-x="260" 
d="M67 0v505h125v-505h-125zM163 730h121v-115h-121v115zM-23 730h121v-115h-121v115zM170 764h-79l99 206h128z" />
    <glyph glyph-name="uni1E36" unicode="&#x1e36;" horiz-adv-x="560" 
d="M77 0v712h129v-606h332v-106h-461zM252 -78h123v-117h-123v117z" />
    <glyph glyph-name="uni1E37" unicode="&#x1e37;" horiz-adv-x="260" 
d="M67 0v736h125v-736h-125zM69 -78h123v-117h-123v117z" />
    <glyph glyph-name="uni1E3A" unicode="&#x1e3a;" horiz-adv-x="560" 
d="M77 0v712h129v-606h332v-106h-461zM158 -176v78h311v-78h-311z" />
    <glyph glyph-name="uni1E3B" unicode="&#x1e3b;" horiz-adv-x="260" 
d="M67 0v736h125v-736h-125zM-25 -176v78h311v-78h-311z" />
    <glyph glyph-name="uni1E42" unicode="&#x1e42;" horiz-adv-x="850" 
d="M79 0v712h103l269 -613h-49l267 613h103v-712h-115l-1 527l34 -8l-222 -519h-85l-227 519l36 8l1 -527h-114zM362 -78h123v-117h-123v117z" />
    <glyph glyph-name="uni1E43" unicode="&#x1e43;" horiz-adv-x="899" 
d="M67 0v362q0 35 -1.5 71.5t-6.5 71.5h118l11 -100l-11 -1q20 54 64 84t104 30q71 0 111.5 -35.5t52.5 -108.5l-24 22q20 55 68 88.5t112 33.5q85 0 127 -51.5t42 -156.5v-310h-125v306q0 58 -19.5 85.5t-64.5 27.5q-52 0 -81.5 -36.5t-29.5 -100.5v-282h-125v306
q0 58 -20.5 85.5t-64.5 27.5q-53 0 -82.5 -36.5t-29.5 -100.5v-282h-125zM390 -78h123v-117h-123v117z" />
    <glyph glyph-name="uni1E44" unicode="&#x1e44;" horiz-adv-x="755" 
d="M77 0v712h96l410 -533l-27 -14v547h121v-712h-97l-408 531l26 16v-547h-121zM307 913h139v-124h-139v124z" />
    <glyph glyph-name="uni1E45" unicode="&#x1e45;" horiz-adv-x="602" 
d="M67 0v362q0 36 -1.5 72t-6.5 71h118l11 -100l-11 -3q24 57 71.5 86.5t109.5 29.5q180 0 180 -208v-310h-125v305q0 59 -23 86.5t-71 27.5q-58 0 -92.5 -36.5t-34.5 -96.5v-286h-125zM233 734h139v-123h-139v123z" />
    <glyph glyph-name="uni1E46" unicode="&#x1e46;" horiz-adv-x="755" 
d="M77 0v712h96l410 -533l-27 -14v547h121v-712h-97l-408 531l26 16v-547h-121zM316 -78h123v-117h-123v117z" />
    <glyph glyph-name="uni1E47" unicode="&#x1e47;" horiz-adv-x="602" 
d="M67 0v362q0 36 -1.5 72t-6.5 71h118l11 -100l-11 -3q24 57 71.5 86.5t109.5 29.5q180 0 180 -208v-310h-125v305q0 59 -23 86.5t-71 27.5q-58 0 -92.5 -36.5t-34.5 -96.5v-286h-125zM241 -78h123v-117h-123v117z" />
    <glyph glyph-name="uni1E48" unicode="&#x1e48;" horiz-adv-x="755" 
d="M77 0v712h96l410 -533l-27 -14v547h121v-712h-97l-408 531l26 16v-547h-121zM222 -176v78h311v-78h-311z" />
    <glyph glyph-name="uni1E49" unicode="&#x1e49;" horiz-adv-x="602" 
d="M67 0v362q0 36 -1.5 72t-6.5 71h118l11 -100l-11 -3q24 57 71.5 86.5t109.5 29.5q180 0 180 -208v-310h-125v305q0 59 -23 86.5t-71 27.5q-58 0 -92.5 -36.5t-34.5 -96.5v-286h-125zM147 -176v78h311v-78h-311z" />
    <glyph glyph-name="uni1E4C" unicode="&#x1e4c;" horiz-adv-x="787" 
d="M393 -8q-104 0 -180 44t-117 126t-41 194q0 113 41 194.5t117 125.5t180 44q105 0 181 -44t117 -125.5t41 -193.5q0 -113 -41.5 -195t-117 -126t-180.5 -44zM393 94q98 0 154 67.5t56 195.5t-56 194.5t-154 66.5q-97 0 -153 -66.5t-56 -194.5t56 -195.5t153 -67.5z
M221 785q0 69 29.5 102.5t72.5 33.5q27 0 51 -14t45.5 -27.5t40.5 -13.5q20 0 32 14.5t13 37.5h57q0 -69 -29.5 -102.5t-72.5 -33.5q-27 0 -51 13.5t-45.5 27.5t-40.5 14q-20 0 -32 -14.5t-13 -37.5h-57zM431 935h-79l102 155h122z" />
    <glyph glyph-name="uni1E4D" unicode="&#x1e4d;" horiz-adv-x="592" 
d="M297 -7q-79 0 -136.5 32t-88.5 90.5t-31 139.5q0 80 31 139.5t88.5 91.5t136.5 32q77 0 134.5 -32t89 -91.5t31.5 -139.5q0 -81 -31.5 -139.5t-89 -90.5t-134.5 -32zM297 89q62 0 95.5 41.5t33.5 124.5q0 82 -33.5 123.5t-95.5 41.5q-63 0 -97.5 -41.5t-34.5 -123.5
q0 -83 34 -124.5t98 -41.5zM126 608q0 68 29.5 101.5t72.5 33.5q27 0 51 -13.5t45.5 -27.5t40.5 -14q20 0 32 14.5t13 37.5h57q0 -68 -29.5 -101.5t-72.5 -33.5q-27 0 -51 13.5t-45.5 27t-40.5 13.5q-20 0 -32 -14.5t-13 -36.5h-57zM336 764h-79l99 206h128z" />
    <glyph glyph-name="uni1E4E" unicode="&#x1e4e;" horiz-adv-x="787" 
d="M393 -8q-104 0 -180 44t-117 126t-41 194q0 113 41 194.5t117 125.5t180 44q105 0 181 -44t117 -125.5t41 -193.5q0 -113 -41.5 -195t-117 -126t-180.5 -44zM393 94q98 0 154 67.5t56 195.5t-56 194.5t-154 66.5q-97 0 -153 -66.5t-56 -194.5t56 -195.5t153 -67.5z
M221 785q0 69 29.5 102.5t72.5 33.5q27 0 51 -14t45.5 -27.5t40.5 -13.5q20 0 32 14.5t13 37.5h57q0 -69 -29.5 -102.5t-72.5 -33.5q-27 0 -51 13.5t-45.5 27.5t-40.5 14q-20 0 -32 -14.5t-13 -37.5h-57zM424 1070h121v-114h-121v114zM238 1070h121v-114h-121v114z" />
    <glyph glyph-name="uni1E4F" unicode="&#x1e4f;" horiz-adv-x="592" 
d="M297 -7q-79 0 -136.5 32t-88.5 90.5t-31 139.5q0 80 31 139.5t88.5 91.5t136.5 32q77 0 134.5 -32t89 -91.5t31.5 -139.5q0 -81 -31.5 -139.5t-89 -90.5t-134.5 -32zM297 89q62 0 95.5 41.5t33.5 124.5q0 82 -33.5 123.5t-95.5 41.5q-63 0 -97.5 -41.5t-34.5 -123.5
q0 -83 34 -124.5t98 -41.5zM126 608q0 68 29.5 101.5t72.5 33.5q27 0 51 -13.5t45.5 -27.5t40.5 -14q20 0 32 14.5t13 37.5h57q0 -68 -29.5 -101.5t-72.5 -33.5q-27 0 -51 13.5t-45.5 27t-40.5 13.5q-20 0 -32 -14.5t-13 -36.5h-57zM329 924h121v-115h-121v115zM143 924h121
v-115h-121v115z" />
    <glyph glyph-name="uni1E50" unicode="&#x1e50;" horiz-adv-x="787" 
d="M393 -8q-104 0 -180 44t-117 126t-41 194q0 113 41 194.5t117 125.5t180 44q105 0 181 -44t117 -125.5t41 -193.5q0 -113 -41.5 -195t-117 -126t-180.5 -44zM393 94q98 0 154 67.5t56 195.5t-56 194.5t-154 66.5q-97 0 -153 -66.5t-56 -194.5t56 -195.5t153 -67.5z
M236 810v82h311v-82h-311zM352 935l-145 155h122l102 -155h-79z" />
    <glyph glyph-name="uni1E51" unicode="&#x1e51;" horiz-adv-x="592" 
d="M297 -7q-79 0 -136.5 32t-88.5 90.5t-31 139.5q0 80 31 139.5t88.5 91.5t136.5 32q77 0 134.5 -32t89 -91.5t31.5 -139.5q0 -81 -31.5 -139.5t-89 -90.5t-134.5 -32zM297 89q62 0 95.5 41.5t33.5 124.5q0 82 -33.5 123.5t-95.5 41.5q-63 0 -97.5 -41.5t-34.5 -123.5
q0 -83 34 -124.5t98 -41.5zM141 631v82h311v-82h-311zM257 764l-148 206h128l99 -206h-79z" />
    <glyph glyph-name="uni1E52" unicode="&#x1e52;" horiz-adv-x="787" 
d="M393 -8q-104 0 -180 44t-117 126t-41 194q0 113 41 194.5t117 125.5t180 44q105 0 181 -44t117 -125.5t41 -193.5q0 -113 -41.5 -195t-117 -126t-180.5 -44zM393 94q98 0 154 67.5t56 195.5t-56 194.5t-154 66.5q-97 0 -153 -66.5t-56 -194.5t56 -195.5t153 -67.5z
M236 810v82h311v-82h-311zM431 935h-79l102 155h122z" />
    <glyph glyph-name="uni1E53" unicode="&#x1e53;" horiz-adv-x="592" 
d="M297 -7q-79 0 -136.5 32t-88.5 90.5t-31 139.5q0 80 31 139.5t88.5 91.5t136.5 32q77 0 134.5 -32t89 -91.5t31.5 -139.5q0 -81 -31.5 -139.5t-89 -90.5t-134.5 -32zM297 89q62 0 95.5 41.5t33.5 124.5q0 82 -33.5 123.5t-95.5 41.5q-63 0 -97.5 -41.5t-34.5 -123.5
q0 -83 34 -124.5t98 -41.5zM141 631v82h311v-82h-311zM336 764h-79l99 206h128z" />
    <glyph glyph-name="uni1E5A" unicode="&#x1e5a;" horiz-adv-x="702" 
d="M77 0v712h305q121 0 184 -53t63 -152q0 -94 -65 -149.5t-181 -55.5l80 16q37 0 66 -22t46 -68l88 -228h-136l-90 237q-14 35 -39.5 47t-63.5 12h-130v-296h-127zM203 396h161q74 0 108 27t34 81q0 55 -34 81t-108 26h-161v-215zM290 -78h123v-117h-123v117z" />
    <glyph glyph-name="uni1E5B" unicode="&#x1e5b;" horiz-adv-x="392" 
d="M67 0v362q0 35 -1.5 71.5t-6.5 71.5h118l14 -130l-14 7q13 67 59 101t104 34q15 0 28 -2t23 -6l-2 -114q-31 13 -66 13q-45 0 -73.5 -18t-43 -48.5t-14.5 -68.5v-273h-125zM69 -78h123v-117h-123v117z" />
    <glyph glyph-name="uni1E5E" unicode="&#x1e5e;" horiz-adv-x="702" 
d="M77 0v712h305q121 0 184 -53t63 -152q0 -94 -65 -149.5t-181 -55.5l80 16q37 0 66 -22t46 -68l88 -228h-136l-90 237q-14 35 -39.5 47t-63.5 12h-130v-296h-127zM203 396h161q74 0 108 27t34 81q0 55 -34 81t-108 26h-161v-215zM196 -176v78h311v-78h-311z" />
    <glyph glyph-name="uni1E5F" unicode="&#x1e5f;" horiz-adv-x="392" 
d="M67 0v362q0 35 -1.5 71.5t-6.5 71.5h118l14 -130l-14 7q13 67 59 101t104 34q15 0 28 -2t23 -6l-2 -114q-31 13 -66 13q-45 0 -73.5 -18t-43 -48.5t-14.5 -68.5v-273h-125zM-25 -176v78h311v-78h-311z" />
    <glyph glyph-name="uni1E60" unicode="&#x1e60;" horiz-adv-x="645" 
d="M318 -8q-55 0 -105 9.5t-93.5 28.5t-76.5 46l43 94q54 -40 110 -58t123 -18q74 0 114.5 26t40.5 73q0 28 -18 46.5t-54 31.5t-89 25q-63 12 -111 29.5t-80 41.5t-48.5 57.5t-16.5 79.5q0 63 34 112t95.5 76.5t144.5 27.5q50 0 97.5 -10t87.5 -28.5t69 -45.5l-44 -94
q-48 39 -100 57.5t-109 18.5q-69 0 -109 -28t-40 -78q0 -29 16.5 -48t51 -32t88.5 -26q62 -13 110.5 -30t82.5 -40.5t51.5 -56t17.5 -77.5q0 -64 -34 -111.5t-97.5 -73t-151.5 -25.5zM254 913h139v-124h-139v124z" />
    <glyph glyph-name="uni1E61" unicode="&#x1e61;" horiz-adv-x="501" 
d="M253 -7q-138 0 -218 63l35 88q40 -30 87 -45t98 -15q46 0 70 15t24 42q0 23 -17 36.5t-58 23.5l-84 19q-69 15 -103.5 50.5t-34.5 90.5q0 46 26 81.5t73 55.5t109 20q54 0 104 -16.5t87 -47.5l-36 -86q-38 29 -77.5 43t-78.5 14q-43 0 -67 -16t-24 -44q0 -22 14.5 -35
t50.5 -21l85 -21q75 -16 109.5 -51.5t34.5 -93.5q0 -69 -56 -109.5t-153 -40.5zM189 734h139v-123h-139v123z" />
    <glyph glyph-name="uni1E62" unicode="&#x1e62;" horiz-adv-x="645" 
d="M318 -8q-55 0 -105 9.5t-93.5 28.5t-76.5 46l43 94q54 -40 110 -58t123 -18q74 0 114.5 26t40.5 73q0 28 -18 46.5t-54 31.5t-89 25q-63 12 -111 29.5t-80 41.5t-48.5 57.5t-16.5 79.5q0 63 34 112t95.5 76.5t144.5 27.5q50 0 97.5 -10t87.5 -28.5t69 -45.5l-44 -94
q-48 39 -100 57.5t-109 18.5q-69 0 -109 -28t-40 -78q0 -29 16.5 -48t51 -32t88.5 -26q62 -13 110.5 -30t82.5 -40.5t51.5 -56t17.5 -77.5q0 -64 -34 -111.5t-97.5 -73t-151.5 -25.5zM260 -78h123v-117h-123v117z" />
    <glyph glyph-name="uni1E63" unicode="&#x1e63;" horiz-adv-x="501" 
d="M253 -7q-138 0 -218 63l35 88q40 -30 87 -45t98 -15q46 0 70 15t24 42q0 23 -17 36.5t-58 23.5l-84 19q-69 15 -103.5 50.5t-34.5 90.5q0 46 26 81.5t73 55.5t109 20q54 0 104 -16.5t87 -47.5l-36 -86q-38 29 -77.5 43t-78.5 14q-43 0 -67 -16t-24 -44q0 -22 14.5 -35
t50.5 -21l85 -21q75 -16 109.5 -51.5t34.5 -93.5q0 -69 -56 -109.5t-153 -40.5zM188 -78h123v-117h-123v117z" />
    <glyph glyph-name="uni1E64" unicode="&#x1e64;" horiz-adv-x="645" 
d="M318 -8q-55 0 -105 9.5t-93.5 28.5t-76.5 46l43 94q54 -40 110 -58t123 -18q74 0 114.5 26t40.5 73q0 28 -18 46.5t-54 31.5t-89 25q-63 12 -111 29.5t-80 41.5t-48.5 57.5t-16.5 79.5q0 63 34 112t95.5 76.5t144.5 27.5q50 0 97.5 -10t87.5 -28.5t69 -45.5l-44 -94
q-48 39 -100 57.5t-109 18.5q-69 0 -109 -28t-40 -78q0 -29 16.5 -48t51 -32t88.5 -26q62 -13 110.5 -30t82.5 -40.5t51.5 -56t17.5 -77.5q0 -64 -34 -111.5t-97.5 -73t-151.5 -25.5zM383 773h-79l102 155h122zM135 927h139v-124h-139v124z" />
    <glyph glyph-name="uni1E65" unicode="&#x1e65;" horiz-adv-x="501" 
d="M253 -7q-138 0 -218 63l35 88q40 -30 87 -45t98 -15q46 0 70 15t24 42q0 23 -17 36.5t-58 23.5l-84 19q-69 15 -103.5 50.5t-34.5 90.5q0 46 26 81.5t73 55.5t109 20q54 0 104 -16.5t87 -47.5l-36 -86q-38 29 -77.5 43t-78.5 14q-43 0 -67 -16t-24 -44q0 -22 14.5 -35
t50.5 -21l85 -21q75 -16 109.5 -51.5t34.5 -93.5q0 -69 -56 -109.5t-153 -40.5zM309 562h-79l99 206h128zM84 766h139v-123h-139v123z" />
    <glyph glyph-name="uni1E66" unicode="&#x1e66;" horiz-adv-x="645" 
d="M318 -8q-55 0 -105 9.5t-93.5 28.5t-76.5 46l43 94q54 -40 110 -58t123 -18q74 0 114.5 26t40.5 73q0 28 -18 46.5t-54 31.5t-89 25q-63 12 -111 29.5t-80 41.5t-48.5 57.5t-16.5 79.5q0 63 34 112t95.5 76.5t144.5 27.5q50 0 97.5 -10t87.5 -28.5t69 -45.5l-44 -94
q-48 39 -100 57.5t-109 18.5q-69 0 -109 -28t-40 -78q0 -29 16.5 -48t51 -32t88.5 -26q62 -13 110.5 -30t82.5 -40.5t51.5 -56t17.5 -77.5q0 -64 -34 -111.5t-97.5 -73t-151.5 -25.5zM390 928h99l-128 -155h-75l-128 155h99l67 -93zM254 1075h139v-124h-139v124z" />
    <glyph glyph-name="uni1E67" unicode="&#x1e67;" horiz-adv-x="501" 
d="M253 -7q-138 0 -218 63l35 88q40 -30 87 -45t98 -15q46 0 70 15t24 42q0 23 -17 36.5t-58 23.5l-84 19q-69 15 -103.5 50.5t-34.5 90.5q0 46 26 81.5t73 55.5t109 20q54 0 104 -16.5t87 -47.5l-36 -86q-38 29 -77.5 43t-78.5 14q-43 0 -67 -16t-24 -44q0 -22 14.5 -35
t50.5 -21l85 -21q75 -16 109.5 -51.5t34.5 -93.5q0 -69 -56 -109.5t-153 -40.5zM322 776h102l-126 -206h-79l-126 206h102l64 -128zM189 928h139v-123h-139v123z" />
    <glyph glyph-name="uni1E68" unicode="&#x1e68;" horiz-adv-x="645" 
d="M318 -8q-55 0 -105 9.5t-93.5 28.5t-76.5 46l43 94q54 -40 110 -58t123 -18q74 0 114.5 26t40.5 73q0 28 -18 46.5t-54 31.5t-89 25q-63 12 -111 29.5t-80 41.5t-48.5 57.5t-16.5 79.5q0 63 34 112t95.5 76.5t144.5 27.5q50 0 97.5 -10t87.5 -28.5t69 -45.5l-44 -94
q-48 39 -100 57.5t-109 18.5q-69 0 -109 -28t-40 -78q0 -29 16.5 -48t51 -32t88.5 -26q62 -13 110.5 -30t82.5 -40.5t51.5 -56t17.5 -77.5q0 -64 -34 -111.5t-97.5 -73t-151.5 -25.5zM260 -78h123v-117h-123v117zM254 913h139v-124h-139v124z" />
    <glyph glyph-name="uni1E69" unicode="&#x1e69;" horiz-adv-x="501" 
d="M253 -7q-138 0 -218 63l35 88q40 -30 87 -45t98 -15q46 0 70 15t24 42q0 23 -17 36.5t-58 23.5l-84 19q-69 15 -103.5 50.5t-34.5 90.5q0 46 26 81.5t73 55.5t109 20q54 0 104 -16.5t87 -47.5l-36 -86q-38 29 -77.5 43t-78.5 14q-43 0 -67 -16t-24 -44q0 -22 14.5 -35
t50.5 -21l85 -21q75 -16 109.5 -51.5t34.5 -93.5q0 -69 -56 -109.5t-153 -40.5zM188 -78h123v-117h-123v117zM189 734h139v-123h-139v123z" />
    <glyph glyph-name="uni1E6C" unicode="&#x1e6c;" horiz-adv-x="618" 
d="M244 0v606h-232v106h594v-106h-232v-606h-130zM247 -78h123v-117h-123v117z" />
    <glyph glyph-name="uni1E6D" unicode="&#x1e6d;" horiz-adv-x="379" 
d="M5 411v94h356v-94h-356zM361 104v-99q-20 -7 -39.5 -9.5t-41.5 -2.5q-85 0 -131.5 48t-46.5 138v449l125 42v-485q0 -34 11 -53.5t29.5 -27.5t41.5 -8q13 0 25 2t27 6zM179 -78h123v-117h-123v117z" />
    <glyph glyph-name="uni1E6E" unicode="&#x1e6e;" horiz-adv-x="618" 
d="M244 0v606h-232v106h594v-106h-232v-606h-130zM153 -176v78h311v-78h-311z" />
    <glyph glyph-name="uni1E6F" unicode="&#x1e6f;" horiz-adv-x="379" 
d="M5 411v94h356v-94h-356zM361 104v-99q-20 -7 -39.5 -9.5t-41.5 -2.5q-85 0 -131.5 48t-46.5 138v449l125 42v-485q0 -34 11 -53.5t29.5 -27.5t41.5 -8q13 0 25 2t27 6zM85 -176v78h311v-78h-311z" />
    <glyph glyph-name="uni1E78" unicode="&#x1e78;" horiz-adv-x="740" 
d="M371 -8q-147 0 -222.5 75t-75.5 221v424h126v-431q0 -92 43.5 -139.5t128.5 -47.5q82 0 125.5 48t43.5 139v431h128v-424q0 -145 -76.5 -220.5t-220.5 -75.5zM200 785q0 69 29.5 102.5t72.5 33.5q27 0 51 -14t45.5 -27.5t40.5 -13.5q20 0 32 14.5t13 37.5h57
q0 -69 -29.5 -102.5t-72.5 -33.5q-27 0 -51 13.5t-45.5 27.5t-40.5 14q-20 0 -32 -14.5t-13 -37.5h-57zM410 935h-79l102 155h122z" />
    <glyph glyph-name="uni1E79" unicode="&#x1e79;" horiz-adv-x="595" 
d="M250 -7q-93 0 -139.5 51.5t-46.5 155.5v305h125v-306q0 -55 23 -81t69 -26q55 0 88 36t33 96v281h126v-505h-122v104l13 1q-22 -55 -66 -83.5t-103 -28.5zM127 608q0 68 29.5 101.5t72.5 33.5q27 0 51 -13.5t45.5 -27.5t40.5 -14q20 0 32 14.5t13 37.5h57
q0 -68 -29.5 -101.5t-72.5 -33.5q-27 0 -51 13.5t-45.5 27t-40.5 13.5q-20 0 -32 -14.5t-13 -36.5h-57zM337 764h-79l99 206h128z" />
    <glyph glyph-name="uni1E7A" unicode="&#x1e7a;" horiz-adv-x="740" 
d="M371 -8q-147 0 -222.5 75t-75.5 221v424h126v-431q0 -92 43.5 -139.5t128.5 -47.5q82 0 125.5 48t43.5 139v431h128v-424q0 -145 -76.5 -220.5t-220.5 -75.5zM215 810v82h311v-82h-311zM403 1070h121v-114h-121v114zM217 1070h121v-114h-121v114z" />
    <glyph glyph-name="uni1E7B" unicode="&#x1e7b;" horiz-adv-x="595" 
d="M250 -7q-93 0 -139.5 51.5t-46.5 155.5v305h125v-306q0 -55 23 -81t69 -26q55 0 88 36t33 96v281h126v-505h-122v104l13 1q-22 -55 -66 -83.5t-103 -28.5zM142 631v82h311v-82h-311zM330 924h121v-115h-121v115zM144 924h121v-115h-121v115z" />
    <glyph glyph-name="Wgrave" unicode="&#x1e80;" horiz-adv-x="1121" 
d="M276 0l-252 712h131l195 -585h-36l204 585l92 -1l198 -584h-34l199 585h123l-251 -712h-105l-191 546h24l-193 -546h-104zM520 773l-145 155h122l102 -155h-79z" />
    <glyph glyph-name="wgrave" unicode="&#x1e81;" horiz-adv-x="883" 
d="M208 0l-198 505h129l142 -391h-25l143 391h91l142 -391h-23l142 391h121l-198 -505h-109l-154 407h57l-151 -407h-109zM401 570l-148 206h128l99 -206h-79z" />
    <glyph glyph-name="Wacute" unicode="&#x1e82;" horiz-adv-x="1121" 
d="M276 0l-252 712h131l195 -585h-36l204 585l92 -1l198 -584h-34l199 585h123l-251 -712h-105l-191 546h24l-193 -546h-104zM599 773h-79l102 155h122z" />
    <glyph glyph-name="wacute" unicode="&#x1e83;" horiz-adv-x="883" 
d="M208 0l-198 505h129l142 -391h-25l143 391h91l142 -391h-23l142 391h121l-198 -505h-109l-154 407h57l-151 -407h-109zM480 570h-79l99 206h128z" />
    <glyph glyph-name="Wdieresis" unicode="&#x1e84;" horiz-adv-x="1121" 
d="M276 0l-252 712h131l195 -585h-36l204 585l92 -1l198 -584h-34l199 585h123l-251 -712h-105l-191 546h24l-193 -546h-104zM592 908h121v-114h-121v114zM406 908h121v-114h-121v114z" />
    <glyph glyph-name="wdieresis" unicode="&#x1e85;" horiz-adv-x="883" 
d="M208 0l-198 505h129l142 -391h-25l143 391h91l142 -391h-23l142 391h121l-198 -505h-109l-154 407h57l-151 -407h-109zM473 730h121v-115h-121v115zM287 730h121v-115h-121v115z" />
    <glyph glyph-name="uni1E8E" unicode="&#x1e8e;" horiz-adv-x="629" 
d="M250 0v320l27 -78l-316 470h147l225 -350h-37l225 350h147l-315 -470l26 78v-320h-129zM244 913h139v-124h-139v124z" />
    <glyph glyph-name="uni1E8F" unicode="&#x1e8f;" horiz-adv-x="543" 
d="M56 -227l-28 96q47 10 78 23.5t51.5 34.5t34.5 54l36 82l32 46l162 396h124l-234 -539q-29 -66 -67 -105.5t-85.5 -59.5t-103.5 -28zM231 -33l-233 538h131l159 -396zM202 734h139v-123h-139v123z" />
    <glyph glyph-name="uni1E92" unicode="&#x1e92;" horiz-adv-x="608" 
d="M49 0v94l397 558l-1 -43h-396v103h512v-93l-399 -559l2 43h408v-103h-523zM242 -78h123v-117h-123v117z" />
    <glyph glyph-name="uni1E93" unicode="&#x1e93;" horiz-adv-x="525" 
d="M49 0v87l307 356l10 -32h-311v94h422v-85l-309 -359l-7 34h327v-95h-439zM199 -78h123v-117h-123v117z" />
    <glyph glyph-name="uni1E97" unicode="&#x1e97;" horiz-adv-x="379" 
d="M5 411v94h356v-94h-356zM361 104v-99q-20 -7 -39.5 -9.5t-41.5 -2.5q-85 0 -131.5 48t-46.5 138v449l125 42v-485q0 -34 11 -53.5t29.5 -27.5t41.5 -8q13 0 25 2t27 6zM197 852h121v-114h-121v114zM11 852h121v-114h-121v114z" />
    <glyph glyph-name="uni1E9E" unicode="&#x1e9e;" horiz-adv-x="709" 
d="M77 0v452q0 129 75 198t214 69q75 0 130 -24t85.5 -68t30.5 -104t-33 -102.5t-90 -57.5l2 12q81 -10 126.5 -57t45.5 -121q0 -59 -28.5 -105t-79 -72.5t-115.5 -26.5q-56 0 -102.5 15t-85.5 46l37 93q40 -29 75 -42t68 -13q51 0 79.5 29.5t28.5 80.5q0 55 -35 81.5
t-113 26.5h-111v102h88q59 0 90 26t31 75t-34 76t-93 27q-79 0 -119 -41.5t-40 -122.5v-452h-127z" />
    <glyph glyph-name="uni1EA0" unicode="&#x1ea0;" horiz-adv-x="749" 
d="M130 0h-130l322 712h105l322 -712h-128l-262 612h35zM142 167l49 100h363l47 -100h-459zM313 -78h123v-117h-123v117z" />
    <glyph glyph-name="uni1EA1" unicode="&#x1ea1;" horiz-adv-x="619" 
d="M264 -7q-66 0 -117 31.5t-78.5 90t-27.5 137.5q0 80 28 139.5t78.5 93t116.5 33.5q64 0 111.5 -31.5t64.5 -87.5l-12 -7v113h123v-505h-123v114l12 -4q-17 -56 -64.5 -86.5t-111.5 -30.5zM298 89q62 0 96 43t34 122q0 81 -34 123.5t-96 42.5q-63 0 -98 -44t-35 -124
q0 -78 35 -120.5t98 -42.5zM248 -78h123v-117h-123v117z" />
    <glyph glyph-name="uni1EA2" unicode="&#x1ea2;" horiz-adv-x="749" 
d="M130 0h-130l322 712h105l322 -712h-128l-262 612h35zM142 167l49 100h363l47 -100h-459zM407 785v-12h-67v20q0 17 10 26.5t23.5 15.5t23.5 11.5t10 12.5q0 9 -8.5 13.5t-28.5 4.5q-11 0 -26 -2.5t-32 -8.5l-18 49q18 7 40.5 12t50.5 5q48 0 76 -18.5t28 -45.5
q0 -20 -12.5 -31t-28.5 -18t-28.5 -14.5t-12.5 -19.5z" />
    <glyph glyph-name="uni1EA3" unicode="&#x1ea3;" horiz-adv-x="619" 
d="M264 -7q-66 0 -117 31.5t-78.5 90t-27.5 137.5q0 80 28 139.5t78.5 93t116.5 33.5q64 0 111.5 -31.5t64.5 -87.5l-12 -7v113h123v-505h-123v114l12 -4q-17 -56 -64.5 -86.5t-111.5 -30.5zM298 89q62 0 96 43t34 122q0 81 -34 123.5t-96 42.5q-63 0 -98 -44t-35 -124
q0 -78 35 -120.5t98 -42.5zM345 590v-20h-67v26q0 21 9 35t21 24t21 19.5t9 19.5q0 12 -9 18t-27 6q-12 0 -25 -2t-28 -8l-19 52q22 11 43 15t42 4q54 0 82 -22t28 -51q0 -24 -12 -39t-28 -26.5t-28 -22.5t-12 -28z" />
    <glyph glyph-name="uni1EA4" unicode="&#x1ea4;" horiz-adv-x="749" 
d="M130 0h-130l322 712h105l322 -712h-128l-262 612h35zM142 167l49 100h363l47 -100h-459zM306 773h-98l128 143h75l128 -143h-98l-67 82zM530 879h-65l80 142h110z" />
    <glyph glyph-name="uni1EA5" unicode="&#x1ea5;" horiz-adv-x="619" 
d="M264 -7q-66 0 -117 31.5t-78.5 90t-27.5 137.5q0 80 28 139.5t78.5 93t116.5 33.5q64 0 111.5 -31.5t64.5 -87.5l-12 -7v113h123v-505h-123v114l12 -4q-17 -56 -64.5 -86.5t-111.5 -30.5zM298 89q62 0 96 43t34 122q0 81 -34 123.5t-96 42.5q-63 0 -98 -44t-35 -124
q0 -78 35 -120.5t98 -42.5zM242 570h-98l128 143h75l128 -143h-98l-67 82zM466 677h-65l80 142h110z" />
    <glyph glyph-name="uni1EA6" unicode="&#x1ea6;" horiz-adv-x="749" 
d="M130 0h-130l322 712h105l322 -712h-128l-262 612h35zM142 167l49 100h363l47 -100h-459zM306 773h-98l128 143h75l128 -143h-98l-67 82zM508 879l-119 142h110l74 -142h-65z" />
    <glyph glyph-name="uni1EA7" unicode="&#x1ea7;" horiz-adv-x="619" 
d="M264 -7q-66 0 -117 31.5t-78.5 90t-27.5 137.5q0 80 28 139.5t78.5 93t116.5 33.5q64 0 111.5 -31.5t64.5 -87.5l-12 -7v113h123v-505h-123v114l12 -4q-17 -56 -64.5 -86.5t-111.5 -30.5zM298 89q62 0 96 43t34 122q0 81 -34 123.5t-96 42.5q-63 0 -98 -44t-35 -124
q0 -78 35 -120.5t98 -42.5zM242 570h-98l128 143h75l128 -143h-98l-67 82zM444 677l-119 142h110l74 -142h-65z" />
    <glyph glyph-name="uni1EA8" unicode="&#x1ea8;" horiz-adv-x="749" 
d="M130 0h-130l322 712h105l322 -712h-128l-262 612h35zM142 167l49 100h363l47 -100h-459zM306 773h-98l128 143h75l128 -143h-98l-67 82zM531 888v-8h-67v19q0 16 10 25t23 14.5t23.5 9t10.5 10.5q0 6 -8.5 10.5t-27.5 4.5q-12 0 -27 -2.5t-33 -8.5l-17 47q18 8 40.5 13
t50.5 5q48 0 76 -17t28 -44q0 -20 -12.5 -30t-28.5 -16t-28.5 -12.5t-12.5 -19.5z" />
    <glyph glyph-name="uni1EA9" unicode="&#x1ea9;" horiz-adv-x="619" 
d="M264 -7q-66 0 -117 31.5t-78.5 90t-27.5 137.5q0 80 28 139.5t78.5 93t116.5 33.5q64 0 111.5 -31.5t64.5 -87.5l-12 -7v113h123v-505h-123v114l12 -4q-17 -56 -64.5 -86.5t-111.5 -30.5zM298 89q62 0 96 43t34 122q0 81 -34 123.5t-96 42.5q-63 0 -98 -44t-35 -124
q0 -78 35 -120.5t98 -42.5zM242 570h-98l128 143h75l128 -143h-98l-67 82zM467 686v-9h-67v19q0 17 10 26t23 14t23.5 9t10.5 10t-8.5 11t-27.5 5q-12 0 -27 -3t-33 -9l-17 48q18 8 40.5 13t50.5 5q48 0 76 -17.5t28 -45.5q0 -18 -12.5 -28.5t-28.5 -16.5t-28.5 -12.5
t-12.5 -18.5z" />
    <glyph glyph-name="uni1EAA" unicode="&#x1eaa;" horiz-adv-x="749" 
d="M130 0h-130l322 712h105l322 -712h-128l-262 612h35zM142 167l49 100h363l47 -100h-459zM306 773h-98l128 143h75l128 -143h-98l-67 82zM203 932q0 30 13.5 53.5t36.5 36.5t52 13q27 0 51 -8.5t45.5 -18t40.5 -9.5q20 0 32 9.5t13 26.5h57q0 -30 -13.5 -53.5t-36.5 -37
t-52 -13.5q-27 0 -51 9.5t-45.5 19t-40.5 9.5q-20 0 -32 -10t-13 -27h-57z" />
    <glyph glyph-name="uni1EAB" unicode="&#x1eab;" horiz-adv-x="619" 
d="M264 -7q-66 0 -117 31.5t-78.5 90t-27.5 137.5q0 80 28 139.5t78.5 93t116.5 33.5q64 0 111.5 -31.5t64.5 -87.5l-12 -7v113h123v-505h-123v114l12 -4q-17 -56 -64.5 -86.5t-111.5 -30.5zM298 89q62 0 96 43t34 122q0 81 -34 123.5t-96 42.5q-63 0 -98 -44t-35 -124
q0 -78 35 -120.5t98 -42.5zM242 570h-98l128 143h75l128 -143h-98l-67 82zM139 730q0 30 13.5 53t36.5 36.5t52 13.5q27 0 51 -9t45.5 -18t40.5 -9q20 0 32 9.5t13 25.5h57q0 -29 -13.5 -52.5t-36.5 -37t-52 -13.5q-27 0 -51 9.5t-45.5 18t-40.5 8.5q-20 0 -32 -9.5
t-13 -25.5h-57z" />
    <glyph glyph-name="uni1EAC" unicode="&#x1eac;" horiz-adv-x="749" 
d="M130 0h-130l322 712h105l322 -712h-128l-262 612h35zM142 167l49 100h363l47 -100h-459zM313 -78h123v-117h-123v117zM307 773h-99l128 155h75l128 -155h-99l-66 93z" />
    <glyph glyph-name="uni1EAD" unicode="&#x1ead;" horiz-adv-x="619" 
d="M264 -7q-66 0 -117 31.5t-78.5 90t-27.5 137.5q0 80 28 139.5t78.5 93t116.5 33.5q64 0 111.5 -31.5t64.5 -87.5l-12 -7v113h123v-505h-123v114l12 -4q-17 -56 -64.5 -86.5t-111.5 -30.5zM298 89q62 0 96 43t34 122q0 81 -34 123.5t-96 42.5q-63 0 -98 -44t-35 -124
q0 -78 35 -120.5t98 -42.5zM248 -78h123v-117h-123v117zM246 570h-102l126 206h79l126 -206h-102l-63 127z" />
    <glyph glyph-name="uni1EAE" unicode="&#x1eae;" horiz-adv-x="749" 
d="M130 0h-130l322 712h105l322 -712h-128l-262 612h35zM142 167l49 100h363l47 -100h-459zM374 768q-60 0 -106.5 26t-67.5 83l51 22q21 -34 54 -48.5t69 -14.5q35 0 68 14.5t54 48.5l51 -22q-21 -57 -67.5 -83t-105.5 -26zM412 879h-77l101 142h114z" />
    <glyph glyph-name="uni1EAF" unicode="&#x1eaf;" horiz-adv-x="619" 
d="M264 -7q-66 0 -117 31.5t-78.5 90t-27.5 137.5q0 80 28 139.5t78.5 93t116.5 33.5q64 0 111.5 -31.5t64.5 -87.5l-12 -7v113h123v-505h-123v114l12 -4q-17 -56 -64.5 -86.5t-111.5 -30.5zM298 89q62 0 96 43t34 122q0 81 -34 123.5t-96 42.5q-63 0 -98 -44t-35 -124
q0 -78 35 -120.5t98 -42.5zM310 565q-60 0 -106.5 26.5t-67.5 82.5l51 22q21 -34 54 -48t69 -14q35 0 68 14t54 48l51 -22q-21 -56 -67.5 -82.5t-105.5 -26.5zM348 677h-77l101 142h114z" />
    <glyph glyph-name="uni1EB0" unicode="&#x1eb0;" horiz-adv-x="749" 
d="M130 0h-130l322 712h105l322 -712h-128l-262 612h35zM142 167l49 100h363l47 -100h-459zM374 768q-60 0 -106.5 26t-67.5 83l51 22q21 -34 54 -48.5t69 -14.5q35 0 68 14.5t54 48.5l51 -22q-21 -57 -67.5 -83t-105.5 -26zM335 879l-138 142h114l101 -142h-77z" />
    <glyph glyph-name="uni1EB1" unicode="&#x1eb1;" horiz-adv-x="619" 
d="M264 -7q-66 0 -117 31.5t-78.5 90t-27.5 137.5q0 80 28 139.5t78.5 93t116.5 33.5q64 0 111.5 -31.5t64.5 -87.5l-12 -7v113h123v-505h-123v114l12 -4q-17 -56 -64.5 -86.5t-111.5 -30.5zM298 89q62 0 96 43t34 122q0 81 -34 123.5t-96 42.5q-63 0 -98 -44t-35 -124
q0 -78 35 -120.5t98 -42.5zM310 565q-60 0 -106.5 26.5t-67.5 82.5l51 22q21 -34 54 -48t69 -14q35 0 68 14t54 48l51 -22q-21 -56 -67.5 -82.5t-105.5 -26.5zM271 677l-138 142h114l101 -142h-77z" />
    <glyph glyph-name="uni1EB2" unicode="&#x1eb2;" horiz-adv-x="749" 
d="M130 0h-130l322 712h105l322 -712h-128l-262 612h35zM142 167l49 100h363l47 -100h-459zM374 768q-60 0 -106.5 26t-67.5 83l51 22q21 -34 54 -48.5t69 -14.5q35 0 68 14.5t54 48.5l51 -22q-21 -57 -67.5 -83t-105.5 -26zM407 888v-8h-67v19q0 16 10 25t23.5 14.5t23.5 9
t10 10.5q0 6 -8.5 10.5t-28.5 4.5q-11 0 -26 -2.5t-32 -8.5l-18 47q18 8 40.5 13t50.5 5q48 0 76 -17t28 -44q0 -20 -12.5 -30t-28.5 -16t-28.5 -12.5t-12.5 -19.5z" />
    <glyph glyph-name="uni1EB3" unicode="&#x1eb3;" horiz-adv-x="619" 
d="M264 -7q-66 0 -117 31.5t-78.5 90t-27.5 137.5q0 80 28 139.5t78.5 93t116.5 33.5q64 0 111.5 -31.5t64.5 -87.5l-12 -7v113h123v-505h-123v114l12 -4q-17 -56 -64.5 -86.5t-111.5 -30.5zM298 89q62 0 96 43t34 122q0 81 -34 123.5t-96 42.5q-63 0 -98 -44t-35 -124
q0 -78 35 -120.5t98 -42.5zM310 565q-60 0 -106.5 26.5t-67.5 82.5l51 22q21 -34 54 -48t69 -14q35 0 68 14t54 48l51 -22q-21 -56 -67.5 -82.5t-105.5 -26.5zM343 686v-9h-67v19q0 17 10 26t23.5 14t23.5 9t10 10t-8.5 11t-28.5 5q-11 0 -26 -3t-32 -9l-18 48q18 8 40.5 13
t50.5 5q48 0 76 -17.5t28 -45.5q0 -18 -12.5 -28.5t-28.5 -16.5t-28.5 -12.5t-12.5 -18.5z" />
    <glyph glyph-name="uni1EB4" unicode="&#x1eb4;" horiz-adv-x="749" 
d="M130 0h-130l322 712h105l322 -712h-128l-262 612h35zM142 167l49 100h363l47 -100h-459zM374 768q-60 0 -106.5 26t-67.5 83l51 22q21 -34 54 -48.5t69 -14.5q35 0 68 14.5t54 48.5l51 -22q-21 -57 -67.5 -83t-105.5 -26zM203 923q0 31 13.5 54.5t36.5 36.5t52 13
q27 0 51 -10t45.5 -20t40.5 -10q20 0 32 10.5t13 26.5h57q0 -30 -13.5 -53.5t-36.5 -37t-52 -13.5q-27 0 -51 10t-45.5 20t-40.5 10q-20 0 -32 -10t-13 -27h-57z" />
    <glyph glyph-name="uni1EB5" unicode="&#x1eb5;" horiz-adv-x="619" 
d="M264 -7q-66 0 -117 31.5t-78.5 90t-27.5 137.5q0 80 28 139.5t78.5 93t116.5 33.5q64 0 111.5 -31.5t64.5 -87.5l-12 -7v113h123v-505h-123v114l12 -4q-17 -56 -64.5 -86.5t-111.5 -30.5zM298 89q62 0 96 43t34 122q0 81 -34 123.5t-96 42.5q-63 0 -98 -44t-35 -124
q0 -78 35 -120.5t98 -42.5zM310 565q-60 0 -106.5 26.5t-67.5 82.5l51 22q21 -34 54 -48t69 -14q35 0 68 14t54 48l51 -22q-21 -56 -67.5 -82.5t-105.5 -26.5zM139 720q0 31 13.5 54.5t36.5 37t52 13.5q27 0 51 -10t45.5 -20t40.5 -10q20 0 32 10t13 27h57
q0 -31 -13.5 -54.5t-36.5 -37t-52 -13.5q-27 0 -51 10t-45.5 20t-40.5 10q-20 0 -32 -10t-13 -27h-57z" />
    <glyph glyph-name="uni1EB6" unicode="&#x1eb6;" horiz-adv-x="749" 
d="M130 0h-130l322 712h105l322 -712h-128l-262 612h35zM142 167l49 100h363l47 -100h-459zM313 -78h123v-117h-123v117zM374 783q-60 0 -106.5 26t-67.5 83l62 27q21 -34 49.5 -46t62.5 -12t62 12t49 46l62 -27q-21 -57 -67.5 -83t-105.5 -26z" />
    <glyph glyph-name="uni1EB7" unicode="&#x1eb7;" horiz-adv-x="619" 
d="M264 -7q-66 0 -117 31.5t-78.5 90t-27.5 137.5q0 80 28 139.5t78.5 93t116.5 33.5q64 0 111.5 -31.5t64.5 -87.5l-12 -7v113h123v-505h-123v114l12 -4q-17 -56 -64.5 -86.5t-111.5 -30.5zM298 89q62 0 96 43t34 122q0 81 -34 123.5t-96 42.5q-63 0 -98 -44t-35 -124
q0 -78 35 -120.5t98 -42.5zM248 -78h123v-117h-123v117zM310 596q-39 0 -75 14.5t-64 45t-41 79.5l63 27q24 -46 53.5 -65t63.5 -19t63 19t53 65l63 -27q-13 -49 -40.5 -79.5t-64 -45t-74.5 -14.5z" />
    <glyph glyph-name="uni1EB8" unicode="&#x1eb8;" horiz-adv-x="595" 
d="M77 0v712h476v-101h-350v-198h330v-102h-330v-210h350v-101h-476zM269 -78h123v-117h-123v117z" />
    <glyph glyph-name="uni1EB9" unicode="&#x1eb9;" horiz-adv-x="548" 
d="M501 56q-36 -30 -88.5 -46.5t-106.5 -16.5q-82 0 -141.5 31t-91.5 90t-32 140q0 78 31 137.5t86 93t127 33.5q70 0 120 -30.5t77.5 -87.5t27.5 -135v-19h-359l1 67h284l-34 -34q1 73 -28.5 111t-85.5 38q-60 0 -93 -42.5t-33 -121.5q0 -90 37 -132.5t112 -42.5
q41 0 80.5 13.5t73.5 39.5zM242 -78h123v-117h-123v117z" />
    <glyph glyph-name="uni1EBA" unicode="&#x1eba;" horiz-adv-x="595" 
d="M77 0v712h476v-101h-350v-198h330v-102h-330v-210h350v-101h-476zM364 785v-12h-67v20q0 17 10 26.5t23.5 15.5t23.5 11.5t10 12.5q0 9 -8.5 13.5t-28.5 4.5q-11 0 -26 -2.5t-32 -8.5l-18 49q18 7 40.5 12t50.5 5q48 0 76 -18.5t28 -45.5q0 -20 -12.5 -31t-28.5 -18
t-28.5 -14.5t-12.5 -19.5z" />
    <glyph glyph-name="uni1EBB" unicode="&#x1ebb;" horiz-adv-x="548" 
d="M501 56q-36 -30 -88.5 -46.5t-106.5 -16.5q-82 0 -141.5 31t-91.5 90t-32 140q0 78 31 137.5t86 93t127 33.5q70 0 120 -30.5t77.5 -87.5t27.5 -135v-19h-359l1 67h284l-34 -34q1 73 -28.5 111t-85.5 38q-60 0 -93 -42.5t-33 -121.5q0 -90 37 -132.5t112 -42.5
q41 0 80.5 13.5t73.5 39.5zM320 590v-20h-67v26q0 21 9 35t21 24t21 19.5t9 19.5q0 12 -9 18t-27 6q-12 0 -25 -2t-28 -8l-19 52q22 11 43 15t42 4q54 0 82 -22t28 -51q0 -24 -12 -39t-28 -26.5t-28 -22.5t-12 -28z" />
    <glyph glyph-name="uni1EBC" unicode="&#x1ebc;" horiz-adv-x="595" 
d="M77 0v712h476v-101h-350v-198h330v-102h-330v-210h350v-101h-476zM160 785q0 69 29.5 102.5t72.5 33.5q27 0 51 -14t45.5 -27.5t40.5 -13.5q20 0 32 14.5t13 37.5h57q0 -69 -29.5 -102.5t-72.5 -33.5q-27 0 -51 13.5t-45.5 27.5t-40.5 14q-20 0 -32 -14.5t-13 -37.5h-57z
" />
    <glyph glyph-name="uni1EBD" unicode="&#x1ebd;" horiz-adv-x="548" 
d="M501 56q-36 -30 -88.5 -46.5t-106.5 -16.5q-82 0 -141.5 31t-91.5 90t-32 140q0 78 31 137.5t86 93t127 33.5q70 0 120 -30.5t77.5 -87.5t27.5 -135v-19h-359l1 67h284l-34 -34q1 73 -28.5 111t-85.5 38q-60 0 -93 -42.5t-33 -121.5q0 -90 37 -132.5t112 -42.5
q41 0 80.5 13.5t73.5 39.5zM114 608q0 68 29.5 101.5t72.5 33.5q27 0 51 -13.5t45.5 -27.5t40.5 -14q20 0 32 14.5t13 37.5h57q0 -68 -29.5 -101.5t-72.5 -33.5q-27 0 -51 13.5t-45.5 27t-40.5 13.5q-20 0 -32 -14.5t-13 -36.5h-57z" />
    <glyph glyph-name="uni1EBE" unicode="&#x1ebe;" horiz-adv-x="595" 
d="M77 0v712h476v-101h-350v-198h330v-102h-330v-210h350v-101h-476zM263 773h-98l128 143h75l128 -143h-98l-67 82zM487 879h-65l80 142h110z" />
    <glyph glyph-name="uni1EBF" unicode="&#x1ebf;" horiz-adv-x="548" 
d="M501 56q-36 -30 -88.5 -46.5t-106.5 -16.5q-82 0 -141.5 31t-91.5 90t-32 140q0 78 31 137.5t86 93t127 33.5q70 0 120 -30.5t77.5 -87.5t27.5 -135v-19h-359l1 67h284l-34 -34q1 73 -28.5 111t-85.5 38q-60 0 -93 -42.5t-33 -121.5q0 -90 37 -132.5t112 -42.5
q41 0 80.5 13.5t73.5 39.5zM217 570h-98l128 143h75l128 -143h-98l-67 82zM441 677h-65l80 142h110z" />
    <glyph glyph-name="uni1EC0" unicode="&#x1ec0;" horiz-adv-x="595" 
d="M77 0v712h476v-101h-350v-198h330v-102h-330v-210h350v-101h-476zM263 773h-98l128 143h75l128 -143h-98l-67 82zM465 879l-119 142h110l74 -142h-65z" />
    <glyph glyph-name="uni1EC1" unicode="&#x1ec1;" horiz-adv-x="548" 
d="M501 56q-36 -30 -88.5 -46.5t-106.5 -16.5q-82 0 -141.5 31t-91.5 90t-32 140q0 78 31 137.5t86 93t127 33.5q70 0 120 -30.5t77.5 -87.5t27.5 -135v-19h-359l1 67h284l-34 -34q1 73 -28.5 111t-85.5 38q-60 0 -93 -42.5t-33 -121.5q0 -90 37 -132.5t112 -42.5
q41 0 80.5 13.5t73.5 39.5zM217 570h-98l128 143h75l128 -143h-98l-67 82zM419 677l-119 142h110l74 -142h-65z" />
    <glyph glyph-name="uni1EC2" unicode="&#x1ec2;" horiz-adv-x="595" 
d="M77 0v712h476v-101h-350v-198h330v-102h-330v-210h350v-101h-476zM263 773h-98l128 143h75l128 -143h-98l-67 82zM488 888v-8h-67v19q0 16 10 25t23 14.5t23.5 9t10.5 10.5q0 6 -8.5 10.5t-27.5 4.5q-12 0 -27 -2.5t-33 -8.5l-17 47q18 8 40.5 13t50.5 5q48 0 76 -17
t28 -44q0 -20 -12.5 -30t-28.5 -16t-28.5 -12.5t-12.5 -19.5z" />
    <glyph glyph-name="uni1EC3" unicode="&#x1ec3;" horiz-adv-x="548" 
d="M501 56q-36 -30 -88.5 -46.5t-106.5 -16.5q-82 0 -141.5 31t-91.5 90t-32 140q0 78 31 137.5t86 93t127 33.5q70 0 120 -30.5t77.5 -87.5t27.5 -135v-19h-359l1 67h284l-34 -34q1 73 -28.5 111t-85.5 38q-60 0 -93 -42.5t-33 -121.5q0 -90 37 -132.5t112 -42.5
q41 0 80.5 13.5t73.5 39.5zM217 570h-98l128 143h75l128 -143h-98l-67 82zM442 686v-9h-67v19q0 17 10 26t23 14t23.5 9t10.5 10t-8.5 11t-27.5 5q-12 0 -27 -3t-33 -9l-17 48q18 8 40.5 13t50.5 5q48 0 76 -17.5t28 -45.5q0 -18 -12.5 -28.5t-28.5 -16.5t-28.5 -12.5
t-12.5 -18.5z" />
    <glyph glyph-name="uni1EC4" unicode="&#x1ec4;" horiz-adv-x="595" 
d="M77 0v712h476v-101h-350v-198h330v-102h-330v-210h350v-101h-476zM263 773h-98l128 143h75l128 -143h-98l-67 82zM160 932q0 30 13.5 53.5t36.5 36.5t52 13q27 0 51 -8.5t45.5 -18t40.5 -9.5q20 0 32 9.5t13 26.5h57q0 -30 -13.5 -53.5t-36.5 -37t-52 -13.5
q-27 0 -51 9.5t-45.5 19t-40.5 9.5q-20 0 -32 -10t-13 -27h-57z" />
    <glyph glyph-name="uni1EC5" unicode="&#x1ec5;" horiz-adv-x="548" 
d="M501 56q-36 -30 -88.5 -46.5t-106.5 -16.5q-82 0 -141.5 31t-91.5 90t-32 140q0 78 31 137.5t86 93t127 33.5q70 0 120 -30.5t77.5 -87.5t27.5 -135v-19h-359l1 67h284l-34 -34q1 73 -28.5 111t-85.5 38q-60 0 -93 -42.5t-33 -121.5q0 -90 37 -132.5t112 -42.5
q41 0 80.5 13.5t73.5 39.5zM217 570h-98l128 143h75l128 -143h-98l-67 82zM114 730q0 30 13.5 53t36.5 36.5t52 13.5q27 0 51 -9t45.5 -18t40.5 -9q20 0 32 9.5t13 25.5h57q0 -29 -13.5 -52.5t-36.5 -37t-52 -13.5q-27 0 -51 9.5t-45.5 18t-40.5 8.5q-20 0 -32 -9.5
t-13 -25.5h-57z" />
    <glyph glyph-name="uni1EC6" unicode="&#x1ec6;" horiz-adv-x="595" 
d="M77 0v712h476v-101h-350v-198h330v-102h-330v-210h350v-101h-476zM269 -78h123v-117h-123v117zM264 773h-99l128 155h75l128 -155h-99l-66 93z" />
    <glyph glyph-name="uni1EC7" unicode="&#x1ec7;" horiz-adv-x="548" 
d="M501 56q-36 -30 -88.5 -46.5t-106.5 -16.5q-82 0 -141.5 31t-91.5 90t-32 140q0 78 31 137.5t86 93t127 33.5q70 0 120 -30.5t77.5 -87.5t27.5 -135v-19h-359l1 67h284l-34 -34q1 73 -28.5 111t-85.5 38q-60 0 -93 -42.5t-33 -121.5q0 -90 37 -132.5t112 -42.5
q41 0 80.5 13.5t73.5 39.5zM242 -78h123v-117h-123v117zM221 570h-102l126 206h79l126 -206h-102l-63 127z" />
    <glyph glyph-name="uni1EC8" unicode="&#x1ec8;" horiz-adv-x="284" 
d="M77 0v712h129v-712h-129zM174 785v-12h-67v20q0 17 10 26.5t23.5 15.5t23.5 11.5t10 12.5q0 9 -8.5 13.5t-28.5 4.5q-11 0 -26 -2.5t-32 -8.5l-18 49q18 7 40.5 12t50.5 5q48 0 76 -18.5t28 -45.5q0 -20 -12.5 -31t-28.5 -18t-28.5 -14.5t-12.5 -19.5z" />
    <glyph glyph-name="uni1EC9" unicode="&#x1ec9;" horiz-adv-x="260" 
d="M67 0v505h125v-505h-125zM166 590v-20h-67v26q0 21 9 35t21 24t21 19.5t9 19.5q0 12 -9 18t-27 6q-12 0 -25 -2t-28 -8l-19 52q22 11 43 15t42 4q54 0 82 -22t28 -51q0 -24 -12 -39t-28 -26.5t-28 -22.5t-12 -28z" />
    <glyph glyph-name="uni1ECA" unicode="&#x1eca;" horiz-adv-x="284" 
d="M77 0v712h129v-712h-129zM79 -78h123v-117h-123v117z" />
    <glyph glyph-name="uni1ECB" unicode="&#x1ecb;" horiz-adv-x="260" 
d="M67 0v505h125v-505h-125zM61 734h139v-123h-139v123zM67 -78h123v-117h-123v117z" />
    <glyph glyph-name="uni1ECC" unicode="&#x1ecc;" horiz-adv-x="787" 
d="M393 -8q-104 0 -180 44t-117 126t-41 194q0 113 41 194.5t117 125.5t180 44q105 0 181 -44t117 -125.5t41 -193.5q0 -113 -41.5 -195t-117 -126t-180.5 -44zM393 94q98 0 154 67.5t56 195.5t-56 194.5t-154 66.5q-97 0 -153 -66.5t-56 -194.5t56 -195.5t153 -67.5z
M331 -78h123v-117h-123v117z" />
    <glyph glyph-name="uni1ECD" unicode="&#x1ecd;" horiz-adv-x="592" 
d="M297 -7q-79 0 -136.5 32t-88.5 90.5t-31 139.5q0 80 31 139.5t88.5 91.5t136.5 32q77 0 134.5 -32t89 -91.5t31.5 -139.5q0 -81 -31.5 -139.5t-89 -90.5t-134.5 -32zM297 89q62 0 95.5 41.5t33.5 124.5q0 82 -33.5 123.5t-95.5 41.5q-63 0 -97.5 -41.5t-34.5 -123.5
q0 -83 34 -124.5t98 -41.5zM235 -78h123v-117h-123v117z" />
    <glyph glyph-name="uni1ECE" unicode="&#x1ece;" horiz-adv-x="787" 
d="M393 -8q-104 0 -180 44t-117 126t-41 194q0 113 41 194.5t117 125.5t180 44q105 0 181 -44t117 -125.5t41 -193.5q0 -113 -41.5 -195t-117 -126t-180.5 -44zM393 94q98 0 154 67.5t56 195.5t-56 194.5t-154 66.5q-97 0 -153 -66.5t-56 -194.5t56 -195.5t153 -67.5z
M425 785v-12h-67v20q0 17 10 26.5t23.5 15.5t23.5 11.5t10 12.5q0 9 -8.5 13.5t-28.5 4.5q-11 0 -26 -2.5t-32 -8.5l-18 49q18 7 40.5 12t50.5 5q48 0 76 -18.5t28 -45.5q0 -20 -12.5 -31t-28.5 -18t-28.5 -14.5t-12.5 -19.5z" />
    <glyph glyph-name="uni1ECF" unicode="&#x1ecf;" horiz-adv-x="592" 
d="M297 -7q-79 0 -136.5 32t-88.5 90.5t-31 139.5q0 80 31 139.5t88.5 91.5t136.5 32q77 0 134.5 -32t89 -91.5t31.5 -139.5q0 -81 -31.5 -139.5t-89 -90.5t-134.5 -32zM297 89q62 0 95.5 41.5t33.5 124.5q0 82 -33.5 123.5t-95.5 41.5q-63 0 -97.5 -41.5t-34.5 -123.5
q0 -83 34 -124.5t98 -41.5zM332 590v-20h-67v26q0 21 9 35t21 24t21 19.5t9 19.5q0 12 -9 18t-27 6q-12 0 -25 -2t-28 -8l-19 52q22 11 43 15t42 4q54 0 82 -22t28 -51q0 -24 -12 -39t-28 -26.5t-28 -22.5t-12 -28z" />
    <glyph glyph-name="uni1ED0" unicode="&#x1ed0;" horiz-adv-x="787" 
d="M393 -8q-104 0 -180 44t-117 126t-41 194q0 113 41 194.5t117 125.5t180 44q105 0 181 -44t117 -125.5t41 -193.5q0 -113 -41.5 -195t-117 -126t-180.5 -44zM393 94q98 0 154 67.5t56 195.5t-56 194.5t-154 66.5q-97 0 -153 -66.5t-56 -194.5t56 -195.5t153 -67.5z
M324 773h-98l128 143h75l128 -143h-98l-67 82zM548 879h-65l80 142h110z" />
    <glyph glyph-name="uni1ED1" unicode="&#x1ed1;" horiz-adv-x="592" 
d="M297 -7q-79 0 -136.5 32t-88.5 90.5t-31 139.5q0 80 31 139.5t88.5 91.5t136.5 32q77 0 134.5 -32t89 -91.5t31.5 -139.5q0 -81 -31.5 -139.5t-89 -90.5t-134.5 -32zM297 89q62 0 95.5 41.5t33.5 124.5q0 82 -33.5 123.5t-95.5 41.5q-63 0 -97.5 -41.5t-34.5 -123.5
q0 -83 34 -124.5t98 -41.5zM229 570h-98l128 143h75l128 -143h-98l-67 82zM453 677h-65l80 142h110z" />
    <glyph glyph-name="uni1ED2" unicode="&#x1ed2;" horiz-adv-x="787" 
d="M393 -8q-104 0 -180 44t-117 126t-41 194q0 113 41 194.5t117 125.5t180 44q105 0 181 -44t117 -125.5t41 -193.5q0 -113 -41.5 -195t-117 -126t-180.5 -44zM393 94q98 0 154 67.5t56 195.5t-56 194.5t-154 66.5q-97 0 -153 -66.5t-56 -194.5t56 -195.5t153 -67.5z
M324 773h-98l128 143h75l128 -143h-98l-67 82zM526 879l-119 142h110l74 -142h-65z" />
    <glyph glyph-name="uni1ED3" unicode="&#x1ed3;" horiz-adv-x="592" 
d="M297 -7q-79 0 -136.5 32t-88.5 90.5t-31 139.5q0 80 31 139.5t88.5 91.5t136.5 32q77 0 134.5 -32t89 -91.5t31.5 -139.5q0 -81 -31.5 -139.5t-89 -90.5t-134.5 -32zM297 89q62 0 95.5 41.5t33.5 124.5q0 82 -33.5 123.5t-95.5 41.5q-63 0 -97.5 -41.5t-34.5 -123.5
q0 -83 34 -124.5t98 -41.5zM229 570h-98l128 143h75l128 -143h-98l-67 82zM431 677l-119 142h110l74 -142h-65z" />
    <glyph glyph-name="uni1ED4" unicode="&#x1ed4;" horiz-adv-x="787" 
d="M393 -8q-104 0 -180 44t-117 126t-41 194q0 113 41 194.5t117 125.5t180 44q105 0 181 -44t117 -125.5t41 -193.5q0 -113 -41.5 -195t-117 -126t-180.5 -44zM393 94q98 0 154 67.5t56 195.5t-56 194.5t-154 66.5q-97 0 -153 -66.5t-56 -194.5t56 -195.5t153 -67.5z
M324 773h-98l128 143h75l128 -143h-98l-67 82zM549 888v-8h-67v19q0 16 10 25t23 14.5t23.5 9t10.5 10.5q0 6 -8.5 10.5t-27.5 4.5q-12 0 -27 -2.5t-33 -8.5l-17 47q18 8 40.5 13t50.5 5q48 0 76 -17t28 -44q0 -20 -12.5 -30t-28.5 -16t-28.5 -12.5t-12.5 -19.5z" />
    <glyph glyph-name="uni1ED5" unicode="&#x1ed5;" horiz-adv-x="592" 
d="M297 -7q-79 0 -136.5 32t-88.5 90.5t-31 139.5q0 80 31 139.5t88.5 91.5t136.5 32q77 0 134.5 -32t89 -91.5t31.5 -139.5q0 -81 -31.5 -139.5t-89 -90.5t-134.5 -32zM297 89q62 0 95.5 41.5t33.5 124.5q0 82 -33.5 123.5t-95.5 41.5q-63 0 -97.5 -41.5t-34.5 -123.5
q0 -83 34 -124.5t98 -41.5zM229 570h-98l128 143h75l128 -143h-98l-67 82zM454 686v-9h-67v19q0 17 10 26t23 14t23.5 9t10.5 10t-8.5 11t-27.5 5q-12 0 -27 -3t-33 -9l-17 48q18 8 40.5 13t50.5 5q48 0 76 -17.5t28 -45.5q0 -18 -12.5 -28.5t-28.5 -16.5t-28.5 -12.5
t-12.5 -18.5z" />
    <glyph glyph-name="uni1ED6" unicode="&#x1ed6;" horiz-adv-x="787" 
d="M393 -8q-104 0 -180 44t-117 126t-41 194q0 113 41 194.5t117 125.5t180 44q105 0 181 -44t117 -125.5t41 -193.5q0 -113 -41.5 -195t-117 -126t-180.5 -44zM393 94q98 0 154 67.5t56 195.5t-56 194.5t-154 66.5q-97 0 -153 -66.5t-56 -194.5t56 -195.5t153 -67.5z
M324 773h-98l128 143h75l128 -143h-98l-67 82zM221 932q0 30 13.5 53.5t36.5 36.5t52 13q27 0 51 -8.5t45.5 -18t40.5 -9.5q20 0 32 9.5t13 26.5h57q0 -30 -13.5 -53.5t-36.5 -37t-52 -13.5q-27 0 -51 9.5t-45.5 19t-40.5 9.5q-20 0 -32 -10t-13 -27h-57z" />
    <glyph glyph-name="uni1ED7" unicode="&#x1ed7;" horiz-adv-x="592" 
d="M297 -7q-79 0 -136.5 32t-88.5 90.5t-31 139.5q0 80 31 139.5t88.5 91.5t136.5 32q77 0 134.5 -32t89 -91.5t31.5 -139.5q0 -81 -31.5 -139.5t-89 -90.5t-134.5 -32zM297 89q62 0 95.5 41.5t33.5 124.5q0 82 -33.5 123.5t-95.5 41.5q-63 0 -97.5 -41.5t-34.5 -123.5
q0 -83 34 -124.5t98 -41.5zM229 570h-98l128 143h75l128 -143h-98l-67 82zM126 730q0 30 13.5 53t36.5 36.5t52 13.5q27 0 51 -9t45.5 -18t40.5 -9q20 0 32 9.5t13 25.5h57q0 -29 -13.5 -52.5t-36.5 -37t-52 -13.5q-27 0 -51 9.5t-45.5 18t-40.5 8.5q-20 0 -32 -9.5
t-13 -25.5h-57z" />
    <glyph glyph-name="uni1ED8" unicode="&#x1ed8;" horiz-adv-x="787" 
d="M393 -8q-104 0 -180 44t-117 126t-41 194q0 113 41 194.5t117 125.5t180 44q105 0 181 -44t117 -125.5t41 -193.5q0 -113 -41.5 -195t-117 -126t-180.5 -44zM393 94q98 0 154 67.5t56 195.5t-56 194.5t-154 66.5q-97 0 -153 -66.5t-56 -194.5t56 -195.5t153 -67.5z
M331 -78h123v-117h-123v117zM325 773h-99l128 155h75l128 -155h-99l-66 93z" />
    <glyph glyph-name="uni1ED9" unicode="&#x1ed9;" horiz-adv-x="592" 
d="M297 -7q-79 0 -136.5 32t-88.5 90.5t-31 139.5q0 80 31 139.5t88.5 91.5t136.5 32q77 0 134.5 -32t89 -91.5t31.5 -139.5q0 -81 -31.5 -139.5t-89 -90.5t-134.5 -32zM297 89q62 0 95.5 41.5t33.5 124.5q0 82 -33.5 123.5t-95.5 41.5q-63 0 -97.5 -41.5t-34.5 -123.5
q0 -83 34 -124.5t98 -41.5zM235 -78h123v-117h-123v117zM233 570h-102l126 206h79l126 -206h-102l-63 127z" />
    <glyph glyph-name="uni1EDA" unicode="&#x1eda;" horiz-adv-x="787" 
d="M393 -8q-104 0 -180 44t-117 126t-41 194q0 113 41 194.5t117.5 125.5t182.5 44q36 0 67 -4t63 -4q53 1 74.5 24.5t21.5 81.5v18h110v-34q0 -47 -19.5 -82t-54 -54.5t-81.5 -19.5l10 19q71 -44 108 -123t37 -185q0 -113 -41.5 -195t-117.5 -126t-180 -44zM393 94
q98 0 154 67.5t56 195.5t-56 194.5t-154 66.5q-97 0 -153 -66.5t-56 -194.5t56 -195.5t153 -67.5zM431 773h-79l102 155h122z" />
    <glyph glyph-name="uni1EDB" unicode="&#x1edb;" horiz-adv-x="592" 
d="M297 -7q-79 0 -136.5 32t-88.5 90.5t-31 138.5q0 81 31 140.5t88.5 91.5t134.5 32q14 0 30.5 -2t30 -4t19.5 -2q25 0 44 9t30 32.5t11 66.5v18h108v-33q0 -67 -37.5 -109.5t-102.5 -48.5l20 26q51 -32 77.5 -88.5t26.5 -128.5q0 -80 -31.5 -138.5t-89 -90.5t-134.5 -32z
M297 89q62 0 95.5 41.5t33.5 124.5q0 82 -33.5 123.5t-95.5 41.5q-63 0 -97.5 -41.5t-34.5 -123.5q0 -83 34 -124.5t98 -41.5zM336 570h-79l99 206h128z" />
    <glyph glyph-name="uni1EDC" unicode="&#x1edc;" horiz-adv-x="787" 
d="M393 -8q-104 0 -180 44t-117 126t-41 194q0 113 41 194.5t117.5 125.5t182.5 44q36 0 67 -4t63 -4q53 1 74.5 24.5t21.5 81.5v18h110v-34q0 -47 -19.5 -82t-54 -54.5t-81.5 -19.5l10 19q71 -44 108 -123t37 -185q0 -113 -41.5 -195t-117.5 -126t-180 -44zM393 94
q98 0 154 67.5t56 195.5t-56 194.5t-154 66.5q-97 0 -153 -66.5t-56 -194.5t56 -195.5t153 -67.5zM352 773l-145 155h122l102 -155h-79z" />
    <glyph glyph-name="uni1EDD" unicode="&#x1edd;" horiz-adv-x="592" 
d="M297 -7q-79 0 -136.5 32t-88.5 90.5t-31 138.5q0 81 31 140.5t88.5 91.5t134.5 32q14 0 30.5 -2t30 -4t19.5 -2q25 0 44 9t30 32.5t11 66.5v18h108v-33q0 -67 -37.5 -109.5t-102.5 -48.5l20 26q51 -32 77.5 -88.5t26.5 -128.5q0 -80 -31.5 -138.5t-89 -90.5t-134.5 -32z
M297 89q62 0 95.5 41.5t33.5 124.5q0 82 -33.5 123.5t-95.5 41.5q-63 0 -97.5 -41.5t-34.5 -123.5q0 -83 34 -124.5t98 -41.5zM257 570l-148 206h128l99 -206h-79z" />
    <glyph glyph-name="uni1EDE" unicode="&#x1ede;" horiz-adv-x="787" 
d="M393 -8q-104 0 -180 44t-117 126t-41 194q0 113 41 194.5t117.5 125.5t182.5 44q36 0 67 -4t63 -4q53 1 74.5 24.5t21.5 81.5v18h110v-34q0 -47 -19.5 -82t-54 -54.5t-81.5 -19.5l10 19q71 -44 108 -123t37 -185q0 -113 -41.5 -195t-117.5 -126t-180 -44zM393 94
q98 0 154 67.5t56 195.5t-56 194.5t-154 66.5q-97 0 -153 -66.5t-56 -194.5t56 -195.5t153 -67.5zM425 785v-12h-67v20q0 17 10 26.5t23.5 15.5t23.5 11.5t10 12.5q0 9 -8.5 13.5t-28.5 4.5q-11 0 -26 -2.5t-32 -8.5l-18 49q18 7 40.5 12t50.5 5q48 0 76 -18.5t28 -45.5
q0 -20 -12.5 -31t-28.5 -18t-28.5 -14.5t-12.5 -19.5z" />
    <glyph glyph-name="uni1EDF" unicode="&#x1edf;" horiz-adv-x="592" 
d="M297 -7q-79 0 -136.5 32t-88.5 90.5t-31 138.5q0 81 31 140.5t88.5 91.5t134.5 32q14 0 30.5 -2t30 -4t19.5 -2q25 0 44 9t30 32.5t11 66.5v18h108v-33q0 -67 -37.5 -109.5t-102.5 -48.5l20 26q51 -32 77.5 -88.5t26.5 -128.5q0 -80 -31.5 -138.5t-89 -90.5t-134.5 -32z
M297 89q62 0 95.5 41.5t33.5 124.5q0 82 -33.5 123.5t-95.5 41.5q-63 0 -97.5 -41.5t-34.5 -123.5q0 -83 34 -124.5t98 -41.5zM332 590v-20h-67v26q0 21 9 35t21 24t21 19.5t9 19.5q0 12 -9 18t-27 6q-12 0 -25 -2t-28 -8l-19 52q22 11 43 15t42 4q54 0 82 -22t28 -51
q0 -24 -12 -39t-28 -26.5t-28 -22.5t-12 -28z" />
    <glyph glyph-name="uni1EE0" unicode="&#x1ee0;" horiz-adv-x="787" 
d="M393 -8q-104 0 -180 44t-117 126t-41 194q0 113 41 194.5t117.5 125.5t182.5 44q36 0 67 -4t63 -4q53 1 74.5 24.5t21.5 81.5v18h110v-34q0 -47 -19.5 -82t-54 -54.5t-81.5 -19.5l10 19q71 -44 108 -123t37 -185q0 -113 -41.5 -195t-117.5 -126t-180 -44zM393 94
q98 0 154 67.5t56 195.5t-56 194.5t-154 66.5q-97 0 -153 -66.5t-56 -194.5t56 -195.5t153 -67.5zM221 785q0 69 29.5 102.5t72.5 33.5q27 0 51 -14t45.5 -27.5t40.5 -13.5q20 0 32 14.5t13 37.5h57q0 -69 -29.5 -102.5t-72.5 -33.5q-27 0 -51 13.5t-45.5 27.5t-40.5 14
q-20 0 -32 -14.5t-13 -37.5h-57z" />
    <glyph glyph-name="uni1EE1" unicode="&#x1ee1;" horiz-adv-x="592" 
d="M297 -7q-79 0 -136.5 32t-88.5 90.5t-31 138.5q0 81 31 140.5t88.5 91.5t134.5 32q14 0 30.5 -2t30 -4t19.5 -2q25 0 44 9t30 32.5t11 66.5v18h108v-33q0 -67 -37.5 -109.5t-102.5 -48.5l20 26q51 -32 77.5 -88.5t26.5 -128.5q0 -80 -31.5 -138.5t-89 -90.5t-134.5 -32z
M297 89q62 0 95.5 41.5t33.5 124.5q0 82 -33.5 123.5t-95.5 41.5q-63 0 -97.5 -41.5t-34.5 -123.5q0 -83 34 -124.5t98 -41.5zM126 608q0 68 29.5 101.5t72.5 33.5q27 0 51 -13.5t45.5 -27.5t40.5 -14q20 0 32 14.5t13 37.5h57q0 -68 -29.5 -101.5t-72.5 -33.5
q-27 0 -51 13.5t-45.5 27t-40.5 13.5q-20 0 -32 -14.5t-13 -36.5h-57z" />
    <glyph glyph-name="uni1EE2" unicode="&#x1ee2;" horiz-adv-x="787" 
d="M393 -8q-104 0 -180 44t-117 126t-41 194q0 113 41 194.5t117.5 125.5t182.5 44q36 0 67 -4t63 -4q53 1 74.5 24.5t21.5 81.5v18h110v-34q0 -47 -19.5 -82t-54 -54.5t-81.5 -19.5l10 19q71 -44 108 -123t37 -185q0 -113 -41.5 -195t-117.5 -126t-180 -44zM393 94
q98 0 154 67.5t56 195.5t-56 194.5t-154 66.5q-97 0 -153 -66.5t-56 -194.5t56 -195.5t153 -67.5zM331 -78h123v-117h-123v117z" />
    <glyph glyph-name="uni1EE3" unicode="&#x1ee3;" horiz-adv-x="592" 
d="M297 -7q-79 0 -136.5 32t-88.5 90.5t-31 138.5q0 81 31 140.5t88.5 91.5t134.5 32q14 0 30.5 -2t30 -4t19.5 -2q25 0 44 9t30 32.5t11 66.5v18h108v-33q0 -67 -37.5 -109.5t-102.5 -48.5l20 26q51 -32 77.5 -88.5t26.5 -128.5q0 -80 -31.5 -138.5t-89 -90.5t-134.5 -32z
M297 89q62 0 95.5 41.5t33.5 124.5q0 82 -33.5 123.5t-95.5 41.5q-63 0 -97.5 -41.5t-34.5 -123.5q0 -83 34 -124.5t98 -41.5zM235 -78h123v-117h-123v117z" />
    <glyph glyph-name="uni1EE4" unicode="&#x1ee4;" horiz-adv-x="740" 
d="M371 -8q-147 0 -222.5 75t-75.5 221v424h126v-431q0 -92 43.5 -139.5t128.5 -47.5q82 0 125.5 48t43.5 139v431h128v-424q0 -145 -76.5 -220.5t-220.5 -75.5zM309 -78h123v-117h-123v117z" />
    <glyph glyph-name="uni1EE5" unicode="&#x1ee5;" horiz-adv-x="595" 
d="M250 -7q-93 0 -139.5 51.5t-46.5 155.5v305h125v-306q0 -55 23 -81t69 -26q55 0 88 36t33 96v281h126v-505h-122v104l13 1q-22 -55 -66 -83.5t-103 -28.5zM236 -78h123v-117h-123v117z" />
    <glyph glyph-name="uni1EE6" unicode="&#x1ee6;" horiz-adv-x="740" 
d="M371 -8q-147 0 -222.5 75t-75.5 221v424h126v-431q0 -92 43.5 -139.5t128.5 -47.5q82 0 125.5 48t43.5 139v431h128v-424q0 -145 -76.5 -220.5t-220.5 -75.5zM404 785v-12h-67v20q0 17 10 26.5t23.5 15.5t23.5 11.5t10 12.5q0 9 -8.5 13.5t-28.5 4.5q-11 0 -26 -2.5
t-32 -8.5l-18 49q18 7 40.5 12t50.5 5q48 0 76 -18.5t28 -45.5q0 -20 -12.5 -31t-28.5 -18t-28.5 -14.5t-12.5 -19.5z" />
    <glyph glyph-name="uni1EE7" unicode="&#x1ee7;" horiz-adv-x="595" 
d="M250 -7q-93 0 -139.5 51.5t-46.5 155.5v305h125v-306q0 -55 23 -81t69 -26q55 0 88 36t33 96v281h126v-505h-122v104l13 1q-22 -55 -66 -83.5t-103 -28.5zM333 590v-20h-67v26q0 21 9 35t21 24t21 19.5t9 19.5q0 12 -9 18t-27 6q-12 0 -25 -2t-28 -8l-19 52q22 11 43 15
t42 4q54 0 82 -22t28 -51q0 -24 -12 -39t-28 -26.5t-28 -22.5t-12 -28z" />
    <glyph glyph-name="uni1EE8" unicode="&#x1ee8;" horiz-adv-x="740" 
d="M674 836h109v-34q0 -68 -40.5 -110t-108.5 -45l34 40v-399q0 -145 -76.5 -220.5t-220.5 -75.5q-147 0 -222.5 75t-75.5 221v424h126v-431q0 -92 43.5 -139.5t128.5 -47.5q82 0 125.5 48t43.5 139v431h38q53 1 74.5 24t21.5 82v18zM410 773h-79l102 155h122z" />
    <glyph glyph-name="uni1EE9" unicode="&#x1ee9;" horiz-adv-x="616" 
d="M537 636h109v-33q0 -47 -18 -82t-51.5 -55t-79.5 -22l31 40v-484h-122v104l13 1q-22 -55 -66 -83.5t-103 -28.5q-93 0 -139.5 51.5t-46.5 155.5v305h125v-306q0 -55 23 -81t69 -26q55 0 88 36t33 96v281h36q54 0 76.5 26t22.5 87v18zM337 570h-79l99 206h128z" />
    <glyph glyph-name="uni1EEA" unicode="&#x1eea;" horiz-adv-x="740" 
d="M674 836h109v-34q0 -68 -40.5 -110t-108.5 -45l34 40v-399q0 -145 -76.5 -220.5t-220.5 -75.5q-147 0 -222.5 75t-75.5 221v424h126v-431q0 -92 43.5 -139.5t128.5 -47.5q82 0 125.5 48t43.5 139v431h38q53 1 74.5 24t21.5 82v18zM331 773l-145 155h122l102 -155h-79z
" />
    <glyph glyph-name="uni1EEB" unicode="&#x1eeb;" horiz-adv-x="616" 
d="M537 636h109v-33q0 -47 -18 -82t-51.5 -55t-79.5 -22l31 40v-484h-122v104l13 1q-22 -55 -66 -83.5t-103 -28.5q-93 0 -139.5 51.5t-46.5 155.5v305h125v-306q0 -55 23 -81t69 -26q55 0 88 36t33 96v281h36q54 0 76.5 26t22.5 87v18zM258 570l-148 206h128l99 -206h-79z
" />
    <glyph glyph-name="uni1EEC" unicode="&#x1eec;" horiz-adv-x="740" 
d="M674 836h109v-34q0 -68 -40.5 -110t-108.5 -45l34 40v-399q0 -145 -76.5 -220.5t-220.5 -75.5q-147 0 -222.5 75t-75.5 221v424h126v-431q0 -92 43.5 -139.5t128.5 -47.5q82 0 125.5 48t43.5 139v431h38q53 1 74.5 24t21.5 82v18zM404 785v-12h-67v20q0 17 10 26.5
t23.5 15.5t23.5 11.5t10 12.5q0 9 -8.5 13.5t-28.5 4.5q-11 0 -26 -2.5t-32 -8.5l-18 49q18 7 40.5 12t50.5 5q48 0 76 -18.5t28 -45.5q0 -20 -12.5 -31t-28.5 -18t-28.5 -14.5t-12.5 -19.5z" />
    <glyph glyph-name="uni1EED" unicode="&#x1eed;" horiz-adv-x="616" 
d="M537 636h109v-33q0 -47 -18 -82t-51.5 -55t-79.5 -22l31 40v-484h-122v104l13 1q-22 -55 -66 -83.5t-103 -28.5q-93 0 -139.5 51.5t-46.5 155.5v305h125v-306q0 -55 23 -81t69 -26q55 0 88 36t33 96v281h36q54 0 76.5 26t22.5 87v18zM333 590v-20h-67v26q0 21 9 35t21 24
t21 19.5t9 19.5q0 12 -9 18t-27 6q-12 0 -25 -2t-28 -8l-19 52q22 11 43 15t42 4q54 0 82 -22t28 -51q0 -24 -12 -39t-28 -26.5t-28 -22.5t-12 -28z" />
    <glyph glyph-name="uni1EEE" unicode="&#x1eee;" horiz-adv-x="740" 
d="M674 836h109v-34q0 -68 -40.5 -110t-108.5 -45l34 40v-399q0 -145 -76.5 -220.5t-220.5 -75.5q-147 0 -222.5 75t-75.5 221v424h126v-431q0 -92 43.5 -139.5t128.5 -47.5q82 0 125.5 48t43.5 139v431h38q53 1 74.5 24t21.5 82v18zM200 785q0 69 29.5 102.5t72.5 33.5
q27 0 51 -14t45.5 -27.5t40.5 -13.5q20 0 32 14.5t13 37.5h57q0 -69 -29.5 -102.5t-72.5 -33.5q-27 0 -51 13.5t-45.5 27.5t-40.5 14q-20 0 -32 -14.5t-13 -37.5h-57z" />
    <glyph glyph-name="uni1EEF" unicode="&#x1eef;" horiz-adv-x="616" 
d="M537 636h109v-33q0 -47 -18 -82t-51.5 -55t-79.5 -22l31 40v-484h-122v104l13 1q-22 -55 -66 -83.5t-103 -28.5q-93 0 -139.5 51.5t-46.5 155.5v305h125v-306q0 -55 23 -81t69 -26q55 0 88 36t33 96v281h36q54 0 76.5 26t22.5 87v18zM127 608q0 68 29.5 101.5t72.5 33.5
q27 0 51 -13.5t45.5 -27.5t40.5 -14q20 0 32 14.5t13 37.5h57q0 -68 -29.5 -101.5t-72.5 -33.5q-27 0 -51 13.5t-45.5 27t-40.5 13.5q-20 0 -32 -14.5t-13 -36.5h-57z" />
    <glyph glyph-name="uni1EF0" unicode="&#x1ef0;" horiz-adv-x="740" 
d="M674 836h109v-34q0 -68 -40.5 -110t-108.5 -45l34 40v-399q0 -145 -76.5 -220.5t-220.5 -75.5q-147 0 -222.5 75t-75.5 221v424h126v-431q0 -92 43.5 -139.5t128.5 -47.5q82 0 125.5 48t43.5 139v431h38q53 1 74.5 24t21.5 82v18zM309 -78h123v-117h-123v117z" />
    <glyph glyph-name="uni1EF1" unicode="&#x1ef1;" horiz-adv-x="616" 
d="M537 636h109v-33q0 -47 -18 -82t-51.5 -55t-79.5 -22l31 40v-484h-122v104l13 1q-22 -55 -66 -83.5t-103 -28.5q-93 0 -139.5 51.5t-46.5 155.5v305h125v-306q0 -55 23 -81t69 -26q55 0 88 36t33 96v281h36q54 0 76.5 26t22.5 87v18zM236 -78h123v-117h-123v117z" />
    <glyph glyph-name="Ygrave" unicode="&#x1ef2;" horiz-adv-x="629" 
d="M250 0v320l27 -78l-316 470h147l225 -350h-37l225 350h147l-315 -470l26 78v-320h-129zM274 773l-145 155h122l102 -155h-79z" />
    <glyph glyph-name="ygrave" unicode="&#x1ef3;" horiz-adv-x="543" 
d="M56 -227l-28 96q47 10 78 23.5t51.5 34.5t34.5 54l36 82l32 46l162 396h124l-234 -539q-29 -66 -67 -105.5t-85.5 -59.5t-103.5 -28zM231 -33l-233 538h131l159 -396zM232 570l-148 206h128l99 -206h-79z" />
    <glyph glyph-name="uni1EF4" unicode="&#x1ef4;" horiz-adv-x="629" 
d="M250 0v320l27 -78l-316 470h147l225 -350h-37l225 350h147l-315 -470l26 78v-320h-129zM252 -78h123v-117h-123v117z" />
    <glyph glyph-name="uni1EF5" unicode="&#x1ef5;" horiz-adv-x="543" 
d="M56 -227l-28 96q47 10 78 23.5t51.5 34.5t34.5 54l36 82l32 46l162 396h124l-234 -539q-29 -66 -67 -105.5t-85.5 -59.5t-103.5 -28zM231 -33l-233 538h131l159 -396zM360 -78h123v-117h-123v117z" />
    <glyph glyph-name="uni1EF6" unicode="&#x1ef6;" horiz-adv-x="629" 
d="M250 0v320l27 -78l-316 470h147l225 -350h-37l225 350h147l-315 -470l26 78v-320h-129zM347 785v-12h-67v20q0 17 10 26.5t23.5 15.5t23.5 11.5t10 12.5q0 9 -8.5 13.5t-28.5 4.5q-11 0 -26 -2.5t-32 -8.5l-18 49q18 7 40.5 12t50.5 5q48 0 76 -18.5t28 -45.5
q0 -20 -12.5 -31t-28.5 -18t-28.5 -14.5t-12.5 -19.5z" />
    <glyph glyph-name="uni1EF7" unicode="&#x1ef7;" horiz-adv-x="543" 
d="M56 -227l-28 96q47 10 78 23.5t51.5 34.5t34.5 54l36 82l32 46l162 396h124l-234 -539q-29 -66 -67 -105.5t-85.5 -59.5t-103.5 -28zM231 -33l-233 538h131l159 -396zM307 590v-20h-67v26q0 21 9 35t21 24t21 19.5t9 19.5q0 12 -9 18t-27 6q-12 0 -25 -2t-28 -8l-19 52
q22 11 43 15t42 4q54 0 82 -22t28 -51q0 -24 -12 -39t-28 -26.5t-28 -22.5t-12 -28z" />
    <glyph glyph-name="uni1EF8" unicode="&#x1ef8;" horiz-adv-x="629" 
d="M250 0v320l27 -78l-316 470h147l225 -350h-37l225 350h147l-315 -470l26 78v-320h-129zM143 785q0 69 29.5 102.5t72.5 33.5q27 0 51 -14t45.5 -27.5t40.5 -13.5q20 0 32 14.5t13 37.5h57q0 -69 -29.5 -102.5t-72.5 -33.5q-27 0 -51 13.5t-45.5 27.5t-40.5 14
q-20 0 -32 -14.5t-13 -37.5h-57z" />
    <glyph glyph-name="uni1EF9" unicode="&#x1ef9;" horiz-adv-x="543" 
d="M56 -227l-28 96q47 10 78 23.5t51.5 34.5t34.5 54l36 82l32 46l162 396h124l-234 -539q-29 -66 -67 -105.5t-85.5 -59.5t-103.5 -28zM231 -33l-233 538h131l159 -396zM101 608q0 68 29.5 101.5t72.5 33.5q27 0 51 -13.5t45.5 -27.5t40.5 -14q20 0 32 14.5t13 37.5h57
q0 -68 -29.5 -101.5t-72.5 -33.5q-27 0 -51 13.5t-45.5 27t-40.5 13.5q-20 0 -32 -14.5t-13 -36.5h-57z" />
    <glyph glyph-name="uni2007" unicode="&#x2007;" horiz-adv-x="606" 
 />
    <glyph glyph-name="uni2008" unicode="&#x2008;" horiz-adv-x="251" 
 />
    <glyph glyph-name="uni2009" unicode="&#x2009;" horiz-adv-x="202" 
 />
    <glyph glyph-name="uni200A" unicode="&#x200a;" horiz-adv-x="101" 
 />
    <glyph glyph-name="uni200B" unicode="&#x200b;" 
 />
    <glyph glyph-name="uni2010" unicode="&#x2010;" horiz-adv-x="438" 
d="M69 220v99h301v-99h-301z" />
    <glyph glyph-name="figuredash" unicode="&#x2012;" horiz-adv-x="606" 
d="M69 232v75h468v-75h-468z" />
    <glyph glyph-name="endash" unicode="&#x2013;" horiz-adv-x="505" 
d="M0 232v75h505v-75h-505z" />
    <glyph glyph-name="emdash" unicode="&#x2014;" horiz-adv-x="1010" 
d="M0 232v75h1010v-75h-1010z" />
    <glyph glyph-name="uni2015" unicode="&#x2015;" horiz-adv-x="1010" 
d="M0 232v75h1010v-75h-1010z" />
    <glyph glyph-name="quoteleft" unicode="&#x2018;" horiz-adv-x="251" 
d="M134 719l51 -40q-31 -33 -44 -62t-13 -60l-31 29h99v-140h-141v92q0 51 18 94t61 87z" />
    <glyph glyph-name="quoteright" unicode="&#x2019;" horiz-adv-x="251" 
d="M116 438l-51 41q32 33 44.5 62t12.5 60l32 -29h-99v140h141v-92q0 -51 -18 -94t-62 -88z" />
    <glyph glyph-name="quotesinglbase" unicode="&#x201a;" horiz-adv-x="251" 
d="M116 -133l-51 40q32 32 44.5 61t12.5 60l32 -28h-99v140h141v-93q0 -50 -18 -93.5t-62 -86.5z" />
    <glyph glyph-name="quotedblleft" unicode="&#x201c;" horiz-adv-x="444" 
d="M134 719l51 -40q-31 -33 -44 -62t-13 -60l-31 29h99v-140h-141v92q0 51 18 94t61 87zM328 719l51 -40q-31 -33 -44 -62t-13 -60l-31 29h99v-140h-141v92q0 51 18 94t61 87z" />
    <glyph glyph-name="quotedblright" unicode="&#x201d;" horiz-adv-x="444" 
d="M116 438l-51 41q32 33 44.5 62t12.5 60l32 -29h-99v140h141v-92q0 -51 -18 -94t-62 -88zM310 438l-51 41q32 33 44.5 62t12.5 60l32 -29h-99v140h141v-92q0 -51 -18 -94t-62 -88z" />
    <glyph glyph-name="quotedblbase" unicode="&#x201e;" horiz-adv-x="444" 
d="M116 -133l-51 40q32 32 44.5 61t12.5 60l32 -28h-99v140h141v-93q0 -50 -18 -93.5t-62 -86.5zM310 -133l-51 40q32 32 44.5 61t12.5 60l32 -28h-99v140h141v-93q0 -50 -18 -93.5t-62 -86.5z" />
    <glyph glyph-name="dagger" unicode="&#x2020;" horiz-adv-x="349" 
d="M221 720v-121h107v-80h-107v-352h-93v352h-108v80h108v121h93z" />
    <glyph glyph-name="daggerdbl" unicode="&#x2021;" horiz-adv-x="349" 
d="M221 720v-120h107v-79h-107v-155h107v-78h-107v-121h-93v121h-108v78h108v155h-108v79h108v120h93z" />
    <glyph glyph-name="bullet" unicode="&#x2022;" horiz-adv-x="529" 
d="M265 89q-49 0 -91 23.5t-67 64.5t-25 91q0 46 23.5 87t65 66.5t94.5 25.5q49 0 90 -23.5t66.5 -63.5t25.5 -92q0 -49 -24.5 -90t-66 -65t-91.5 -24z" />
    <glyph glyph-name="ellipsis" unicode="&#x2026;" horiz-adv-x="752" 
d="M55 140h141v-140h-141v140zM306 140h140v-140h-140v140zM556 140h140v-140h-140v140z" />
    <glyph glyph-name="perthousand" unicode="&#x2030;" horiz-adv-x="1259" 
d="M190 281q-77 0 -122 54.5t-45 163.5t45 163t122 54t122 -54t45 -163t-44.5 -163.5t-122.5 -54.5zM190 362q31 0 46 32t15 105q0 72 -15.5 104t-45.5 32q-31 0 -46 -32t-15 -104q0 -73 15 -105t46 -32zM173 0l413 712h120l-412 -712h-121zM689 -4q-77 0 -122 54.5
t-45 163.5t45 163t122 54t122 -54t45 -163t-44.5 -163.5t-122.5 -54.5zM689 77q31 0 46 32t15 105q0 72 -15.5 104t-45.5 32q-31 0 -46 -32t-15 -104q0 -73 15 -105t46 -32zM1069 -4q-77 0 -122 54.5t-45 163.5t45 163t122 54t122 -54t45 -163t-44.5 -163.5t-122.5 -54.5z
M1069 77q31 0 46 32t15 105q0 72 -15.5 104t-45.5 32q-31 0 -46 -32t-15 -104q0 -73 15 -105t46 -32z" />
    <glyph glyph-name="minute" unicode="&#x2032;" horiz-adv-x="244" 
d="M81 419l-32 293h145l-29 -293h-84z" />
    <glyph glyph-name="second" unicode="&#x2033;" horiz-adv-x="455" 
d="M81 419l-32 293h145l-29 -293h-84zM292 419l-32 293h145l-30 -293h-83z" />
    <glyph glyph-name="guilsinglleft" unicode="&#x2039;" horiz-adv-x="289" 
d="M158 86l-135 181l135 183h107l-130 -182l128 -182h-105z" />
    <glyph glyph-name="guilsinglright" unicode="&#x203a;" horiz-adv-x="289" 
d="M132 86h-106l129 182l-131 182h108l134 -183z" />
    <glyph glyph-name="fraction" unicode="&#x2044;" horiz-adv-x="192" 
d="M-71 -28l-84 48l418 720l83 -48z" />
    <glyph glyph-name="uni2070" unicode="&#x2070;" horiz-adv-x="380" 
d="M190 281q-77 0 -122 54.5t-45 163.5t45 163t122 54t122 -54t45 -163t-44.5 -163.5t-122.5 -54.5zM190 362q31 0 46 32t15 105q0 72 -15.5 104t-45.5 32q-31 0 -46 -32t-15 -104q0 -73 15 -105t46 -32z" />
    <glyph glyph-name="uni2074" unicode="&#x2074;" horiz-adv-x="380" 
d="M210 285v310l18 4l-136 -187l-3 25h280v-80h-350v76l202 279h86v-427h-97z" />
    <glyph glyph-name="uni2075" unicode="&#x2075;" horiz-adv-x="380" 
d="M188 281q-40 0 -82 12t-70 31l23 79q57 -38 119 -38q37 0 55.5 15t18.5 42q0 28 -18 42.5t-51 14.5q-23 0 -43 -6.5t-39 -17.5h-52v257h282v-85h-184v-100l-21 2q19 18 42 26t51 8q57 0 96.5 -36t39.5 -100q0 -68 -47.5 -107t-119.5 -39z" />
    <glyph glyph-name="uni2076" unicode="&#x2076;" horiz-adv-x="380" 
d="M200 281q-50 0 -89 22.5t-61.5 68.5t-22.5 119q0 75 24.5 125t67.5 75t98 25q32 0 68 -11t67 -33l-22 -79q-28 19 -55.5 29t-55.5 10q-29 0 -49 -13t-30.5 -43t-10.5 -79v-25l-17 22q13 31 44 47.5t66 16.5q36 0 66.5 -15t48.5 -44.5t18 -73.5q0 -69 -44.5 -106.5
t-110.5 -37.5zM199 357q29 0 45.5 17t16.5 46q0 30 -16 46.5t-44 16.5q-30 0 -46.5 -16.5t-16.5 -46.5q0 -29 16.5 -46t44.5 -17z" />
    <glyph glyph-name="uni2077" unicode="&#x2077;" horiz-adv-x="380" 
d="M171 285h-122l195 365v-27h-210v89h313v-86z" />
    <glyph glyph-name="uni2078" unicode="&#x2078;" horiz-adv-x="380" 
d="M190 281q-78 0 -124 32t-46 87q0 45 29 74.5t83 34.5l-1 -10q-49 8 -75 37t-26 67q0 52 44 82.5t116 30.5t115.5 -30.5t43.5 -82.5q0 -39 -25.5 -68t-73.5 -35l-1 9q53 -7 82 -36t29 -73q0 -55 -46.5 -87t-123.5 -32zM190 358q35 0 53 13.5t18 38.5q0 46 -71 60
q-37 -7 -54.5 -21.5t-17.5 -38.5q0 -25 18.5 -38.5t53.5 -13.5zM190 532q30 7 46 21t16 36q0 24 -16.5 37t-45.5 13t-46 -13t-17 -37q0 -22 17.5 -36t45.5 -21z" />
    <glyph glyph-name="uni2079" unicode="&#x2079;" horiz-adv-x="380" 
d="M180 716q50 0 89 -22t61.5 -68t22.5 -120q0 -75 -25 -125t-67.5 -75t-97.5 -25q-32 0 -68.5 11t-66.5 33l22 79q28 -19 55.5 -29t55.5 -10q29 0 48.5 13t30 43t10.5 79v25l18 -21q-13 -31 -44 -47.5t-66 -16.5q-36 0 -66.5 14.5t-48.5 44t-18 73.5q0 69 44.5 106.5
t110.5 37.5zM181 640q-29 0 -46 -17t-17 -46q0 -30 16.5 -46.5t44.5 -16.5q29 0 46 16.5t17 46.5q0 29 -16.5 46t-44.5 17z" />
    <glyph glyph-name="uni2080" unicode="&#x2080;" horiz-adv-x="380" 
d="M190 -4q-77 0 -122 54.5t-45 163.5t45 163t122 54t122 -54t45 -163t-44.5 -163.5t-122.5 -54.5zM190 77q31 0 46 32t15 105q0 72 -15.5 104t-45.5 32q-31 0 -46 -32t-15 -104q0 -73 15 -105t46 -32z" />
    <glyph glyph-name="uni2081" unicode="&#x2081;" horiz-adv-x="380" 
d="M163 52v281l45 2l-120 -67v101l105 58h78v-375h-108zM83 0v86h267v-86h-267z" />
    <glyph glyph-name="uni2082" unicode="&#x2082;" horiz-adv-x="380" 
d="M46 0v80l138 147q19 21 30 40t11 37q0 21 -14 32.5t-41 11.5q-26 0 -56.5 -10.5t-57.5 -29.5l-24 79q29 19 71.5 31.5t84.5 12.5q67 0 106.5 -33t39.5 -87q0 -35 -16.5 -68t-62.5 -76l-108 -106l-7 25h206v-86h-300z" />
    <glyph glyph-name="uni2083" unicode="&#x2083;" horiz-adv-x="380" 
d="M184 -4q-43 0 -86 12t-71 31l22 79q29 -18 60.5 -28.5t65.5 -10.5t51 12t17 35q0 25 -17 36.5t-50 11.5h-66v83h55q33 0 49.5 11.5t16.5 36.5q0 20 -14.5 31.5t-41.5 11.5q-29 0 -60.5 -10.5t-58.5 -29.5l-24 79q29 19 71 31.5t79 12.5q75 0 113.5 -34t38.5 -83
q0 -35 -20.5 -61t-54.5 -36l1 5q39 -9 62.5 -36t23.5 -69q0 -34 -19 -61.5t-55 -43.5t-88 -16z" />
    <glyph glyph-name="uni2084" unicode="&#x2084;" horiz-adv-x="380" 
d="M210 0v310l18 4l-136 -187l-3 25h280v-80h-350v76l202 279h86v-427h-97z" />
    <glyph glyph-name="uni2085" unicode="&#x2085;" horiz-adv-x="380" 
d="M188 -4q-40 0 -82 12t-70 31l23 79q57 -38 119 -38q37 0 55.5 15t18.5 42q0 28 -18 42.5t-51 14.5q-23 0 -43 -6.5t-39 -17.5h-52v257h282v-85h-184v-100l-21 2q19 18 42 26t51 8q57 0 96.5 -36t39.5 -100q0 -68 -47.5 -107t-119.5 -39z" />
    <glyph glyph-name="uni2086" unicode="&#x2086;" horiz-adv-x="380" 
d="M200 -4q-50 0 -89 22.5t-61.5 68.5t-22.5 119q0 75 24.5 125t67.5 75t98 25q32 0 68 -11t67 -33l-22 -79q-28 19 -55.5 29t-55.5 10q-29 0 -49 -13t-30.5 -43t-10.5 -79v-25l-17 22q13 31 44 47.5t66 16.5q36 0 66.5 -15t48.5 -44.5t18 -73.5q0 -69 -44.5 -106.5
t-110.5 -37.5zM199 72q29 0 45.5 17t16.5 46q0 30 -16 46.5t-44 16.5q-30 0 -46.5 -16.5t-16.5 -46.5q0 -29 16.5 -46t44.5 -17z" />
    <glyph glyph-name="uni2087" unicode="&#x2087;" horiz-adv-x="380" 
d="M171 0h-122l195 365v-27h-210v89h313v-86z" />
    <glyph glyph-name="uni2088" unicode="&#x2088;" horiz-adv-x="380" 
d="M190 -4q-78 0 -124 32t-46 87q0 45 29 74.5t83 34.5l-1 -10q-49 8 -75 37t-26 67q0 52 44 82.5t116 30.5t115.5 -30.5t43.5 -82.5q0 -39 -25.5 -68t-73.5 -35l-1 9q53 -7 82 -36t29 -73q0 -55 -46.5 -87t-123.5 -32zM190 73q35 0 53 13.5t18 38.5q0 46 -71 60
q-37 -7 -54.5 -21.5t-17.5 -38.5q0 -25 18.5 -38.5t53.5 -13.5zM190 247q30 7 46 21t16 36q0 24 -16.5 37t-45.5 13t-46 -13t-17 -37q0 -22 17.5 -36t45.5 -21z" />
    <glyph glyph-name="uni2089" unicode="&#x2089;" horiz-adv-x="380" 
d="M180 431q50 0 89 -22t61.5 -68t22.5 -120q0 -75 -25 -125t-67.5 -75t-97.5 -25q-32 0 -68.5 11t-66.5 33l22 79q28 -19 55.5 -29t55.5 -10q29 0 48.5 13t30 43t10.5 79v25l18 -21q-13 -31 -44 -47.5t-66 -16.5q-36 0 -66.5 14.5t-48.5 44t-18 73.5q0 69 44.5 106.5
t110.5 37.5zM181 355q-29 0 -46 -17t-17 -46q0 -30 16.5 -46.5t44.5 -16.5q29 0 46 16.5t17 46.5q0 29 -16.5 46t-44.5 17z" />
    <glyph glyph-name="colonmonetary" unicode="&#x20a1;" horiz-adv-x="600" 
d="M355 -8q-94 0 -163 44t-106.5 126t-37.5 195q0 112 37.5 194t106.5 125.5t163 43.5q57 0 116.5 -22.5t99.5 -61.5l-44 -94q-46 38 -87 56.5t-80 18.5q-87 0 -134.5 -68t-47.5 -192q0 -125 47.5 -193.5t134.5 -68.5q39 0 80 18.5t87 56.5l44 -94q-40 -39 -99.5 -61.5
t-116.5 -22.5zM95 -70l-79 29l101 250l61 -71zM236 -125l-78 31l65 164l83 -18zM299 669l63 159h89l-62 -159h-90zM521 594l-71 47l74 187h90z" />
    <glyph glyph-name="franc" unicode="&#x20a3;" horiz-adv-x="600" 
d="M54 0v712h436v-104h-313v-193h163v-105h-163v-310h-123zM325 0v494h111v-138l-10 6q10 54 31 84.5t51 42.5t69 12h15v-102h-9q-49 0 -79.5 -15.5t-44.5 -45t-14 -70.5v-268h-120z" />
    <glyph glyph-name="lira" unicode="&#x20a4;" horiz-adv-x="600" 
d="M41 240v79h381v-79h-381zM41 394v80h381v-80h-381zM253 513v-272q0 -49 -11 -80.5t-37.5 -52t-72.5 -34.5l1 30h436v-104h-528v87q47 23 65.5 52.5t18.5 79.5v303q0 60 27 105t76 69t114 24q68 0 128 -21t107 -62l-44 -94q-46 37 -92.5 56t-88.5 19q-49 0 -74 -26.5
t-25 -78.5z" />
    <glyph glyph-name="uni20A6" unicode="&#x20a6;" horiz-adv-x="600" 
d="M102 0v712h103l212 -534l-27 -13v547h108v-712h-104l-211 512l27 34v-546h-108zM16 240v81h135v-81h-135zM16 395v80h135v-80h-135zM437 240v81h148v-81h-148zM437 395v80h148v-80h-148z" />
    <glyph glyph-name="peseta" unicode="&#x20a7;" horiz-adv-x="1200" 
d="M72 0v728h183q73 0 126 -29.5t82 -83.5t29 -129q0 -73 -29.5 -127.5t-82.5 -84.5t-125 -30h-58v-244h-125zM197 344h54q63 0 93 34.5t30 106.5q0 74 -30 108t-93 34h-54v-283zM450 411v94h342v-95zM999 -7q-127 0 -209 63l36 88q45 -30 88 -44t87 -13q42 0 65.5 15
t23.5 41q0 27 -24 41t-94 29q-87 18 -125.5 53t-38.5 93q0 46 26.5 82t72 56.5t102.5 20.5q50 0 99.5 -17t84.5 -47l-35 -86q-41 28 -79.5 41.5t-74.5 13.5q-35 0 -57.5 -16t-22.5 -43q0 -25 22 -38.5t83 -28.5q66 -15 104.5 -34t54.5 -47t16 -70q0 -70 -56.5 -111.5
t-148.5 -41.5zM546 656h125v-468q0 -50 24 -76t72 -26q10 0 22.5 1t23.5 2l-5 -92q-29 -4 -56 -4q-108 0 -157 50t-49 143v470z" />
    <glyph glyph-name="uni20A9" unicode="&#x20a9;" horiz-adv-x="600" 
d="M147 0l-94 712h95l61 -562h-34l91 562h68l90 -562h-34l61 562h96l-95 -712h-71l-100 579h37l-100 -579h-71zM16 240v81h135v-81h-135zM16 395v80h128v-80h-128zM437 240v81h148v-81h-148zM443 395v80h142v-80h-142z" />
    <glyph glyph-name="dong" unicode="&#x20ab;" horiz-adv-x="600" 
d="M249 -7q-60 0 -106 31.5t-72 89.5t-26 138q0 79 26 136t71.5 87.5t106.5 30.5q55 0 98.5 -30.5t60.5 -82.5l-13 -16v335h126v-712h-124v123l11 -18q-17 -52 -60.5 -82t-98.5 -30zM67 -150v77h454v-77h-454zM284 91q53 0 83 43t30 115q0 73 -30 116t-83 43
q-52 0 -82.5 -41.5t-30.5 -114.5q0 -75 31 -118t82 -43zM250 553v77h341v-77h-341z" />
    <glyph glyph-name="Euro" unicode="&#x20ac;" horiz-adv-x="600" 
d="M372 -8q-84 0 -145 43t-93.5 125t-32.5 197q0 114 32.5 195.5t93.5 124.5t145 43q60 0 117 -22t98 -62l-44 -94q-46 39 -86 57t-79 18q-76 0 -112 -63.5t-36 -196.5q0 -135 35.5 -198.5t112.5 -63.5q39 0 79 18t86 57l44 -94q-40 -39 -98.5 -61.5t-116.5 -22.5zM16 240
v79h382v-79h-382zM16 394v80h382v-80h-382z" />
    <glyph glyph-name="uni20AD" unicode="&#x20ad;" horiz-adv-x="600" 
d="M16 317v78h544v-78h-544zM462 0l-276 357l276 355h141l-303 -392v72l303 -392h-141zM95 0v712h125v-712h-125z" />
    <glyph glyph-name="uni20B1" unicode="&#x20b1;" horiz-adv-x="600" 
d="M102 0v712h180q74 0 126 -30.5t78.5 -84.5t26.5 -122t-27 -122t-78.5 -85t-125.5 -31h-55v-237h-125zM16 357v80h135v-80h-135zM16 511v81h135v-81h-135zM227 336h51q56 0 86 32t30 106q0 75 -29.5 106t-86.5 31h-51v-275zM437 357v80h148v-80h-148zM437 511v81h148v-81
h-148z" />
    <glyph glyph-name="uni20B2" unicode="&#x20b2;" horiz-adv-x="600" 
d="M346 -8q-93 0 -162 43.5t-107.5 125.5t-38.5 196q0 113 38 194.5t107 125t163 43.5q53 0 113.5 -22t102.5 -62l-43 -94q-47 39 -88.5 57t-79.5 18q-84 0 -132.5 -66t-48.5 -194q0 -129 48 -196.5t128 -67.5q27 0 61 7.5t66 21.5l-28 -48v218h-125v93h240v-342
q-33 -15 -70.5 -26.5t-74 -18t-69.5 -6.5zM289 -116v134h102v-134h-102zM287 694v134h101v-134h-101z" />
    <glyph glyph-name="uni20B5" unicode="&#x20b5;" horiz-adv-x="600" 
d="M355 -8q-94 0 -163 44t-106.5 126t-37.5 195q0 112 37.5 194t106.5 125.5t163 43.5q57 0 116.5 -22.5t99.5 -61.5l-44 -94q-46 38 -87 56.5t-80 18.5q-87 0 -134.5 -68t-47.5 -192q0 -125 47.5 -193.5t134.5 -68.5q39 0 80 18.5t87 56.5l44 -94q-40 -39 -99.5 -61.5
t-116.5 -22.5zM298 -116v944h101v-944h-101z" />
    <glyph glyph-name="uni20B9" unicode="&#x20b9;" horiz-adv-x="600" 
d="M415 0l-151 228q-20 30 -42.5 44t-59.5 14h-144v101h213q67 0 102 31t35 93q0 60 -35 90.5t-102 30.5h-86v63h107q77 0 130.5 -20t81.5 -62.5t28 -110.5q0 -65 -29.5 -112t-83 -72.5t-125.5 -25.5l17 11q51 0 85 -18.5t63 -62.5l150 -222h-154zM18 478v80h564v-80h-564z
M18 632v80h564v-80h-564z" />
    <glyph glyph-name="uni20BA" unicode="&#x20ba;" horiz-adv-x="600" 
d="M141 26v686h130v-606q15 -5 33 -8t46 -3q39 0 86.5 15.5t100.5 57.5l44 -93q-52 -45 -116 -64t-135 -19q-95 0 -189 34zM58 252v92l381 214v-93zM58 420v93l381 212v-92z" />
    <glyph glyph-name="uni20BC" unicode="&#x20bc;" horiz-adv-x="600" 
d="M36 0q0 183 12 309.5t34 207t54 124.5t73.5 61t91.5 17q49 0 90.5 -17t74 -61.5t54.5 -125t33.5 -207t11.5 -308.5h-125q0 140 -4 241t-11.5 170t-19 111t-26.5 63.5t-35 29.5t-43 8q-24 0 -43.5 -8t-35 -30t-27 -64t-19 -110.5t-11 -169.5t-3.5 -241h-126zM252 314v331
l-3 38v145h102v-145l-3 -38v-331h-96z" />
    <glyph glyph-name="uni20BD" unicode="&#x20bd;" horiz-adv-x="600" 
d="M102 0v712h241q78 0 131.5 -26t81.5 -72t28 -106q0 -64 -28.5 -111t-82 -72t-130.5 -25h-116v-300h-125zM16 146v79h378v-79h-378zM16 300v81h143v-81h-143zM227 381h89q73 0 110.5 27.5t37.5 85.5q0 64 -35 93t-106 29h-96v-235z" />
    <glyph glyph-name="uni2113" unicode="&#x2113;" horiz-adv-x="606" 
d="M325 -16q-51 0 -82 21t-45 55t-14 73v68l-51 -53l-47 47l98 99v244q0 55 18.5 95.5t51.5 62t79 21.5q39 0 66 -15.5t40.5 -42.5t13.5 -63q0 -77 -35 -140t-88 -125q-8 -9 -16.5 -19t-13.5 -17v-139q0 -38 15.5 -57t41.5 -19q20 0 38.5 10t38.5 29l37 -69
q-30 -31 -66.5 -48.5t-79.5 -17.5zM300 397q4 5 7 9.5t6 8.5q28 39 46.5 82.5t18.5 80.5q0 18 -8 32.5t-27 14.5q-20 0 -31.5 -17.5t-11.5 -59.5v-151z" />
    <glyph glyph-name="uni2116" unicode="&#x2116;" horiz-adv-x="1115" 
d="M932 407q-55 0 -91 21t-54 56.5t-18 78.5t18 77.5t54 55.5t91 21q56 0 92.5 -21t54.5 -55.5t18 -77.5t-18 -78.5t-54.5 -56.5t-92.5 -21zM932 490q31 0 47 19t16 54q0 36 -16 54t-47 18q-29 0 -44 -18t-15 -54q0 -35 15 -54t44 -19zM784 220v99h300v-99h-300zM77 0v712
h96l410 -533l-27 -14v547h121v-712h-97l-408 531l26 16v-547h-121z" />
    <glyph glyph-name="trademark" unicode="&#x2122;" horiz-adv-x="942" 
d="M137 287v333h-125v92h366v-92h-125v-333h-116zM439 287v425h90l137 -263h-21l139 263h86v-425h-99v258l16 -2l-96 -183h-72l-97 183l18 2v-258h-101z" />
    <glyph glyph-name="uni2126" unicode="&#x2126;" horiz-adv-x="807" 
d="M404 721q107 0 186 -38t122.5 -107t43.5 -162q0 -94 -52.5 -180.5t-158.5 -166.5l20 37h180v-104h-281v101q83 75 123 151.5t40 158.5q0 98 -59.5 152.5t-163.5 54.5q-106 0 -165 -54.5t-59 -152.5q0 -83 41 -159t124 -151v-101h-282v104h179l21 -37q-107 80 -160 166.5
t-53 180.5q0 93 44 162t123.5 107t186.5 38z" />
    </font>
</defs>
</svg>
